Ссылка на приватное зеркало всего за 1$. Внимание количество ограничено!!!

iTunes

iTunes

iTunes

1

iTunes

iTunes

iTunes

iTunes

iTunes

30
pack

$ от Little Big

ВАЖНО

!!Акция!!

Alien_RageХит недели

RePack

Resident Evil 21

ИГРА 18+

pack

RePack

jed

!!Акция!!

Alien_Rage

RePack

fifa19

RePack

Assassins Creed: Odyssey

RePack

NEED FOR SPEED™ PAYBACK

4 сезон

9 сезон

Бесстыжие 9 сезон

Все сериалы

все сериалы на PB.wtf

RePack

FAR CRY 5
  

Кинороман / Cinemanovels (Терри Майлз ) [2013, драма, мелодрама, комедия, WEB-DL 720p, Профессиональный многоголосый [Лицензия] pb.wtf

Кинороман через торрент pb.wtf

Размер: 2.82 GB | Добавлен: 5 лет 7 мес. назад | Торрент скачан:26 раз
Скачать  

08-12-2014 12:58 Кинороман Скачать торрент  

Информация о фильме

Название: Кинороман

Оригинальное название: Cinemanovels

Год выхода: 2013

Выпущено: Канада / Cinemanovel Films

Продолжительность: 01:30:38

Перевод: Профессиональный (многоголосый, закадровый) - Лицензия [R5]

Жанр: Драма, мелодрама, комедия

Режиссер: Терри Майлз

В ролях: Лорен Ли Смит, Дженнифер Билз, Бен Коттон, Саpа Грей, Кэтрин Изабель



Описание: Грейс в последние годы практически не общалась со своим отцом, легендарным канадским кинорежиссером Джоном Лореншеном. Поэтому она очень удивилась, когда ей предложили принять участие в подготовке ретроспективного показа его работ. Тем не менее, она соглашается, хоть и не смотрела ни одного из его фильмов. Случайно оказывается, что её сосед Адам является настоящим поклонником творчества её отца и предлагает ей свою помощь. Но чем больше Грейс узнаёт о работах отца, тем большее влияние они начинают оказывать на её судьбу.









Файл

Качество: WEB-DL 720p

Контейнер (Расширение): MKV
Видео кодек: AVC
Аудио кодек:AC3

Видео: MPEG4/AVC, 1280x542 (2.35:1), 3910 Кбит/сек, 23.976 кадра/сек

Аудио: AC3, 6 каналов, 448 Кбит/сек | Русский

Субтитры: Английские (Forced - вшитые не отключаемые на французскую речь)
Общее

Уникальный идентификатор : 206209674481617634130468431355559767948 (0x9B2289E7A160EA06B0D1E709CFD36F8C)

Полное имя : Cinemanovels. (2013) WEB-DL 720p.mkv

Формат : Matroska

Версия формата : Version 2

Размер файла : 2,82 Гбайт

Продолжительность : 1 ч. 30 м.

Общий поток : 4447 Кбит/сек

Название фильма : Cinemanovels. 2013

Дата кодирования : UTC 2014-12-07 20:27:39

Программа кодирования : mkvmerge v5.8.0 ('No Sleep / Pillow') built on Sep 2 2012 15:37:04

Библиотека кодирования : libebml v1.2.3 + libmatroska v1.3.0



Видео

Идентификатор : 1

Формат : AVC

Формат/Информация : Advanced Video Codec

Профиль формата : Main@L3.1

Параметр CABAC формата : Нет

Параметр ReFrames формата : 2 кадра

Идентификатор кодека : V_MPEG4/ISO/AVC

Продолжительность : 1 ч. 30 м.

Битрейт : 3910 Кбит/сек

Ширина : 1280 пикселей

Высота : 542 пикселя

Соотношение сторон : 2,35:1

Режим частоты кадров : Постоянный

Частота кадров : 23,976 кадра/сек

Цветовое пространство : YUV

Субдискретизация насыщенности : 4:2:0

Битовая глубина : 8 бит

Тип развёртки : Прогрессивная

Бит/(Пиксели*Кадры) : 0.235

Размер потока : 2,48 Гбайт (88%)

Заголовок : RARBG

Язык : English

Default : Да

Forced : Нет

Основные цвета : BT.709

Характеристики трансфера : BT.709

Коэффициенты матрицы : BT.709



Аудио

Идентификатор : 2

Формат : AC-3

Формат/Информация : Audio Coding 3

Расширение режима : CM (complete main)

Параметр Endianness формата : Big

Идентификатор кодека : A_AC3

Продолжительность : 1 ч. 30 м.

Вид битрейта : Постоянный

Битрейт : 448 Кбит/сек

Каналы : 6 каналов

Расположение каналов : Front: L C R, Side: L R, LFE

Частота : 48,0 КГц

Битовая глубина : 16 бит

Метод сжатия : С потерями

Размер потока : 290 Мбайт (10%)

Заголовок : License | R5

Язык : Russian

Default : Да

Forced : Нет
pb.wtf



Скачать Кинороман через торрент http://3.firepic.org/3/images/2014-12/08/k3zx5bq1rqaq.png Скачать фильм Кинороман через торрент бесплантно в хорошем качестве Описание: Грейс в последние годы практически не общалась со своим отцом, легендарным канадским кинорежиссером Джоном Лореншеном. Поэтому ... 10 10 2
Торрент: Зарегистрирован [2014-12-08 12:58] · скачан: 26 раз
Статус: √ проверено
Размер: 2.82 GB
Как cкачать? Как скачать Кинороман через торрент | qTorrent

% Раздел Тема Автор DL S | L
Фильмы 2013 [DVDrip, WEB-DLRip, HDrip] [ 1.37 GB ] Кинороман / Cinemanovels [2013 WEB-DLRip многоголосый [] Ворон Скачать
1 | 0

28-11-2019 20:33  

Отключить всю рекламу на сайте

    Дорогой пользователь! Огромная просьба, поблагодарите релизера, оцените раздачу и оставьте свои комментарий, если Вы скачали Кинороман через торрент бесплатно! Внесите свою лепту в развитие PiratBit!
    Комментировать посты могут только пользователи прошедшие не сложную регистрацию
    Показать сообщения:    

    Кинороман через торрент
    Скачать бесплатно Кинороман
    Кинороман скачать торрент
    Кинороман смотреть онлайн
    Cкачать фильм Кинороман бесплатно
    Кинороман скачать торрент в хорошем качестве
    Кинороман смотреть онлайн бесплатно в хорошем качестве


    Вы не можете начинать темы
    Вы не можете отвечать на сообщения
    Вы не можете редактировать свои сообщения
    Вы не можете удалять свои сообщения
    Вы не можете голосовать в опросах
    Вы не можете прикреплять файлы к сообщениям
    Вы можете скачивать файлы