Ссылка на приватное зеркало нашего сайта всего за 1$. Внимание количество ограничено!!!

2 сезон

iTunes

1 сезон

1

iTunes

iTunes

iTunes

1 сезон

RePack

30

ИГРА 18+

pack

ВАЖНО

!!Акция!!

Alien_RageХит недели

RePack

MK11
pack

Забери бонус

RePack

jed

!!Акция!!

Alien_Rage

RePack

fifa19

RePack

Assassins Creed: Odyssey

RePack

NEED FOR SPEED™ PAYBACK

4 сезон

9 сезон

Бесстыжие 9 сезон

Все сериалы

все сериалы на PB.wtf

RePack

FAR CRY 5
  

Утренняя звезда / Morning Star (Люка Бони , Марко Ристори ) [2014, фэнтези, боевик, триллер, BDRip (1080p), Профессиональный двухголосый] pb.wtf

Утренняя звезда через торрент pb.wtf

Размер: 6.85 GB | Добавлен: 5 лет 10 мес. назад | Торрент скачан:101 раз
Скачать  

08-12-2014 15:45 Утренняя звезда Скачать торрент  


Утренняя звезда / Morning Star
«Fight the Evil»

Год выпуска:2014
Страна: Италия
Жанр:фэнтези, боевик, триллер, приключения
Продолжительность:01:30:37
Перевод:Профессиональный двухголосый
Режиссер:Люка Бони , Марко Ристори

  • В ролях:

    Адриан Буше, Майк Митчелл, Дэниэл Вивиан, Айви Корбин, Элли МакКлелланд, Дэвид Уайт
  • Описание:
    После смертельной битвы воин несёт на себе тело убитого друга, чтобы похоронить дома, как они друг другу обещали. По дороге ему приходится выдержать ряд испытаний...


    Качество: BDRip (1080p)
    Формат:MKV
    Видео кодек: AVC
    Аудио кодек:DTS,AC3
    Видео: 9452 Кбит/с, 1920x800, 24 fps
    Аудио1: AC3, 2 ch, 384 Кбит/с/ 48 kHz
    Аудио2: английский (DTS, 6 ch, 768 Кбит/c) / 48 kHz


    General
    Morning.Star.2014.Blu.Ray.1080p.CINEMANIA.mkv
    Format : Matroska
    Format version : Version 4 / Version 2
    File size : 6.85 GiB
    Duration : 1h 30mn
    Overall bit rate : 10.8 Mbps
    Movie name : Release Group CINEMANIA
    Encoded date : UTC 2014-12-08 13:52:57
    Writing application : mkvmerge v7.3.0 ('Nouages') 64bit built on Oct 22 2014 18:53:34
    Writing library : libebml v1.3.0 + libmatroska v1.4.1

    Video
    ID : 1
    Format : AVC
    Format/Info : Advanced Video Codec
    Format profile : High@L4.0
    Format settings, CABAC : Yes
    Format settings, ReFrames : 4 frames
    Codec ID : V_MPEG4/ISO/AVC
    Duration : 1h 30mn
    Bit rate : 9 452 Kbps
    Width : 1 920 pixels
    Height : 800 pixels
    Display aspect ratio : 2.40:1
    Frame rate mode : Constant
    Frame rate : 24.000 fps
    Color space : YUV
    Chroma subsampling : 4:2:0
    Bit depth : 8 bits
    Scan type : Progressive
    Bits/(Pixel*Frame) : 0.256
    Stream size : 5.98 GiB (87%)
    Title : Release Group CINEMANIA
    Writing library : x264 core 130 r2273 b3065e6
    Encoding settings : cabac=1 / ref=4 / deblock=1:-3:-3 / analyse=0x3:0x133 / me=umh / subme=9 / psy=1 / psy_rd=1.00:0.00 / mixed_ref=1 / me_range=32 / chroma_me=1 / trellis=2 / 8x8dct=1 / cqm=0 / deadzone=21,11 / fast_pskip=0 / chroma_qp_offset=-2 / threads=12 / lookahead_threads=1 / sliced_threads=0 / nr=0 / decimate=1 / interlaced=0 / bluray_compat=0 / constrained_intra=0 / bframes=5 / b_pyramid=2 / b_adapt=2 / b_bias=0 / direct=3 / weightb=1 / open_gop=0 / weightp=2 / keyint=240 / keyint_min=24 / scenecut=40 / intra_refresh=0 / rc_lookahead=50 / rc=crf / mbtree=1 / crf=16.0 / qcomp=0.60 / qpmin=0 / qpmax=69 / qpstep=4 / ip_ratio=1.40 / aq=1:1.00
    Language : English
    Default : Yes
    Forced : No
    Color primaries : BT.709
    Transfer characteristics : BT.709
    Matrix coefficients : BT.709

    Audio #1
    ID : 2
    Format : AC-3
    Format/Info : Audio Coding 3
    Mode extension : CM (complete main)
    Format settings, Endianness : Big
    Codec ID : A_AC3
    Duration : 1h 30mn
    Bit rate mode : Constant
    Bit rate : 384 Kbps
    Channel(s) : 2 channels
    Channel positions : Front: L R
    Sampling rate : 48.0 KHz
    Bit depth : 16 bits
    Compression mode : Lossy
    Stream size : 249 MiB (4%)
    Title : Пиратская Студия
    Language : Russian
    Default : Yes
    Forced : Yes

    Audio #2
    ID : 3
    Format : DTS
    Format/Info : Digital Theater Systems
    Mode : 16
    Format settings, Endianness : Big
    Codec ID : A_DTS
    Duration : 1h 30mn
    Bit rate mode : Constant
    Bit rate : 768 Kbps
    Channel(s) : 6 channels
    Channel positions : Front: L C R, Side: L R, LFE
    Sampling rate : 48.0 KHz
    Bit depth : 16 bits
    Compression mode : Lossy
    Stream size : 498 MiB (7%)
    Language : English
    Default : No
    Forced : No

    Menu
    00:00:00.000 : en:Chapter 1
    00:12:24.250 : en:Chapter 2
    00:22:45.666 : en:Chapter 3
    00:29:11.083 : en:Chapter 4
    00:35:41.708 : en:Chapter 5
    00:48:38.791 : en:Chapter 6
    00:55:21.291 : en:Chapter 7
    01:00:31.416 : en:Chapter 8
    01:05:42.250 : en:Chapter 9
    01:12:22.583 : en:Chapter 10
    01:20:02.250 : en:Chapter 11
    01:27:22.625 : en:Chapter 12
    Скриншоты:

    Срочно! Нужна помощь! Жмите

    © Оформление by Raven
    pb.wtf



  • Скачать Утренняя звезда через торрент http://pic.kartinco.top/images/6/ordi9.jpg Скачать фильм Утренняя звезда через торрент бесплантно в хорошем качестве Описание:После смертельной битвы воин несёт на себе тело убитого друга, чтобы похоронить дома, как они друг другу обещали. По дороге ему ... 10 10 5
    Торрент: Зарегистрирован [2014-12-08 15:45] · скачан: 101 раз
    Статус: √ проверено
    Размер: 6.85 GB
    Как cкачать? Как скачать Утренняя звезда через торрент | qTorrent

    % Раздел Тема Автор DL S | L
    Фильмы 2014 [DVDrip, WEB-DLRip, HDrip] [ 1.37 GB ] Утренняя звезда / Morning Star [2014 HDRip двухголосый] Ворон Скачать
    1 | 0

    28-11-2019 20:33  

    Отключить всю рекламу на сайте

      Дорогой пользователь! Огромная просьба, поблагодарите релизера, оцените раздачу и оставьте свои комментарий, если Вы скачали Утренняя звезда через торрент бесплатно! Внесите свою лепту в развитие PiratBit!
      Комментировать посты могут только пользователи прошедшие не сложную регистрацию
      Показать сообщения:    

      Утренняя звезда через торрент
      Скачать бесплатно Утренняя звезда
      Утренняя звезда скачать торрент
      Утренняя звезда смотреть онлайн
      Cкачать фильм Утренняя звезда бесплатно
      Утренняя звезда скачать торрент в хорошем качестве
      Утренняя звезда смотреть онлайн бесплатно в хорошем качестве


      Вы не можете начинать темы
      Вы не можете отвечать на сообщения
      Вы не можете редактировать свои сообщения
      Вы не можете удалять свои сообщения
      Вы не можете голосовать в опросах
      Вы не можете прикреплять файлы к сообщениям
      Вы можете скачивать файлы