новый адрес
Мега распродажа FORZA HORIZON 4 ULTIMATE+ВСЕ DLC+ОНЛАЙН всего за 499р. 349 руб. (супер цена). Внимание количество ограничено!!!

iTunes

1+1

iTunes

мы

iTunes

1

iTunes

Чернобыль

iTunes

Ральф против интернета

Лицензия

ПШазам

Лицензия

Оно 2

Лицензия

30
pack

ВАЖНО

!!Акция!!

Alien_RageХит недели

RePack

Resident Evil 21

ИГРА 18+

pack

RePack

Metro:Exodus

!!Акция!!

Alien_Rage

RePack

fifa19

RePack

Assassins Creed: Odyssey

RePack

NEED FOR SPEED™ PAYBACK

3 сезон

9 сезон

Бесстыжие 9 сезон

Все сериалы

все сериалы на PB.wtf

RePack

FAR CRY 5
Ребята, катастрофически не хватает 1900р. для оплаты серверов за Октябрь (всвязи с блокировками трафик упал в 3 раза), 1-2р., выручайте.
  

Стражи Галактики / Guardians of the Galaxy (Джеймс Ганн / James Gunn) [2014, США, Великобритания, фантастика, боевик, приключения,3D BDRip 1080p / 60 FPS, IMAX, Горизонтальная анаморфная стереопара, Дубляж] pb.wtf

Стражи Галактики через торрент pb.wtf

Размер: 14.59 GB | Добавлен: 4 года 11 мес. назад | Торрент скачан:1379 раз
Скачать  

08-12-2014 16:50 Стражи Галактики Скачать торрент  


Название: Стражи Галактики
Оригинальное название: Guardians of the Galaxy
Год выпуска: 2014
Страна: США, Великобритания
Жанр: фантастика, боевик, приключения
Продолжительность: 02:00:51
Перевод: Дубляж
Субтитры: русские (Форсированные), русские (Полные), английские (Полные)
Режиссер: Джеймс Ганн / James Gunn
В ролях: Крис Пратт (Peter Quill), Зои Салдана (Gamora), Дэйв Батиста (Drax), Брэдли Купер (Rocket, озвучка), Вин Дизель (Groot, озвучка), Ли Пейс (Ronan), Майкл Рукер (Yondu Udonta), Карен Гиллан (Nebula), Гленн Клоуз (Nova Prime), Джимон Хонсу (Korath), Джон Си Райли (Corpsman Dey), Бенисио Дель Торо (The Collector)
Описание:
Отважному путешественнику Питеру Квиллу попадает в руки таинственный артефакт, принадлежащий могущественному и безжалостному злодею Ронану, строящему коварные планы по захвату Вселенной. Питер оказывается в центре межгалактической охоты, где жертва - он сам.
Единственный способ спасти свою жизнь - объединиться с четверкой нелюдимых изгоев: воинственным енотом по кличке Ракета, человекоподобным деревом Грутом, смертельно опасной Гаморой и одержимым жаждой мести Драксом, также известным как Разрушитель. Когда Квилл понимает, какой силой обладает украденный артефакт и какую опасность он представляет для вселенной, одиночка пойдет на все, чтобы сплотить случайных союзников для решающей битвы за судьбу галактики.
Рейтинг
kinopoisk.ru: 7.964 (91 081)
imdb.com: 8.30 (304 541)
MPAA: PG-13 - Детям до 13 лет просмотр не желателен
Автор рипа:Tiberiumsun69

Качество: 3D BDRip 1080p / 60 FPS
Формат: MKV
Видео кодек: AVC
Аудио кодек:AC3
Видео: AVC, 1920x1080 (16:9), 16000 kbps, 59,940 fps, 0,129 bpp
Аудио №1: русский / AC3 / 5.1 / 48 kHz / 640 kbps / 16 bit |Дубляж|
Аудио №2: английский / AC3 / 5.1 / 48 kHz / 640 kbps / 16 bit
Навигация по главам: есть

General
Unique ID : 251442396173251622995331695369366363906 (0xBD2A0B44194756D9AE8A7EA97E255F02)
Complete name : A:\3D\Стражи галактики 3D 1080p 60fps.mkv
Format : Matroska
Format version : Version 4 / Version 2
File size : 14.6 GiB
Duration : 2h 0mn
Overall bit rate : 17.3 Mbps
Movie name : R.G. HD-Films by Tiberiumsun69 60fps
Encoded date : UTC 2014-12-08 16:34:16
Writing application : mkvmerge v7.3.0 ('Nouages') 64bit built on Oct 22 2014 18:53:34
Writing library : libebml v1.3.0 + libmatroska v1.4.1
Attachment : Yes

Video
ID : 1
Format : AVC
Format/Info : Advanced Video Codec
Format profile : High@L4.1
Format settings, CABAC : Yes
Format settings, ReFrames : 4 frames
Codec ID : V_MPEG4/ISO/AVC
Duration : 2h 0mn
Bit rate : 16.0 Mbps
Width : 1 920 pixels
Height : 1 080 pixels
Display aspect ratio : 16:9
Frame rate : 59.940 fps
Color space : YUV
Chroma subsampling : 4:2:0
Bit depth : 8 bits
Scan type : Progressive
Bits/(Pixel*Frame) : 0.129
Stream size : 13.2 GiB (91%)
Title : R.G. HD-Films by Tiberiumsun69 60fps
Writing library : x264 core 142 r2491 24e4fed
Encoding settings : cabac=1 / ref=4 / deblock=1:-1:-1 / analyse=0x3:0 / me=umh / subme=10 / psy=1 / psy_rd=1.00:0.00 / mixed_ref=1 / me_range=32 / chroma_me=0 / trellis=2 / 8x8dct=1 / cqm=0 / deadzone=21,11 / fast_pskip=1 / chroma_qp_offset=-2 / threads=12 / lookahead_threads=1 / sliced_threads=0 / nr=0 / decimate=1 / interlaced=0 / bluray_compat=0 / constrained_intra=0 / bframes=5 / b_pyramid=2 / b_adapt=2 / b_bias=0 / direct=1 / weightb=1 / open_gop=0 / weightp=2 / keyint=250 / keyint_min=59 / scenecut=40 / intra_refresh=0 / rc=2pass / mbtree=0 / bitrate=16000 / ratetol=1.0 / qcomp=0.80 / qpmin=0 / qpmax=69 / qpstep=4 / cplxblur=20.0 / qblur=0.5 / ip_ratio=1.40 / pb_ratio=1.30 / aq=1:1.00
Language : English
Default : Yes
Forced : No

Audio #1
ID : 2
Format : AC-3
Format/Info : Audio Coding 3
Mode extension : CM (complete main)
Codec ID : A_AC3
Duration : 2h 0mn
Bit rate mode : Constant
Bit rate : 640 Kbps
Channel(s) : 6 channels
Channel positions : Front: L C R, Side: L R, LFE
Sampling rate : 48.0 KHz
Bit depth : 16 bits
Compression mode : Lossy
Stream size : 553 MiB (4%)
Title : Дубляж
Language : Russian
Default : Yes
Forced : No

Audio #2
ID : 3
Format : AC-3
Format/Info : Audio Coding 3
Mode extension : CM (complete main)
Codec ID : A_AC3
Duration : 2h 0mn
Bit rate mode : Constant
Bit rate : 640 Kbps
Channel(s) : 6 channels
Channel positions : Front: L C R, Side: L R, LFE
Sampling rate : 48.0 KHz
Bit depth : 16 bits
Compression mode : Lossy
Stream size : 553 MiB (4%)
Title : Оригинал
Language : English
Default : No
Forced : No

Text #1
ID : 4
Format : UTF-8
Codec ID : S_TEXT/UTF8
Codec ID/Info : UTF-8 Plain Text
Title : Форсированные
Language : Russian
Default : Yes
Forced : No

Text #2
ID : 5
Format : UTF-8
Codec ID : S_TEXT/UTF8
Codec ID/Info : UTF-8 Plain Text
Title : Полные
Language : Russian
Default : No
Forced : No

Text #3
ID : 6
Format : UTF-8
Codec ID : S_TEXT/UTF8
Codec ID/Info : UTF-8 Plain Text
Title : Полные
Language : English
Default : No
Forced : No

Menu
00:00:00.000 : en:Prologue
00:04:05.703 : en:Morag
00:11:21.806 : en:Ronan the accuser
00:15:21.712 : en:A man of honor
00:20:54.419 : en:The Kyln
00:27:11.212 : en:Crimes against The Galaxy
00:33:58.828 : en:Escaping the Kyln
00:44:28.290 : en:Knowhere
00:50:53.008 : en:I do not dance
00:55:17.564 : en:The collector
00:59:45.206 : en:Facing off with Ronan
01:06:06.921 : en:Something increclibly heroic
01:14:46.023 : en:12 Percent of a plan
01:22:20.644 : en:The fleet approaches
01:26:29.726 : en:Inside the dark Aster
01:30:23.876 : en:Destroying Xandar
01:35:58.377 : en:Protecting The Guardians
01:40:46.749 : en:Guardians of The Galaxy
01:47:35.365 : en:Guardians pardoned
01:53:16.623 : en:End Credits
02:00:10.828 : en:End tag
Просьба к переливающим на другие сайты, в оформлении указывайте пожалуйста авторство рипа - Tiberiumsun69
Поблагодарить релизера! Авторская группа в ВК
pb.wtf



Скачать Стражи Галактики через торрент http://i65.fastpic.ru/big/2014/1208/e1/475cd2fdadd6d9c40f5a89027a57dae1.png Скачать фильм Стражи Галактики через торрент бесплантно в хорошем качестве Описание: Отважному путешественнику Питеру Квиллу попадает в руки таинственный артефакт, принадлежащий могущественному и безжалостному ... 10 10 27
Info! Золотая раздача, скачанное не засчитывается.
Торрент: Зарегистрирован [2014-12-08 16:50] · скачан: 1 379 раз
Статус: √ проверено
Размер: 14.59 GB
Как cкачать? Как скачать Стражи Галактики через торрент | qTorrent

% Раздел Тема Автор DL S | L
Ultra HD (UHD: 2K, 4K, 8K) — видео сверхвысокой чёткости [ 59.14 GB ] Стражи Галактики / Guardians of the Galaxy [2014 UHD Blu-Ray 2160p] DUB [] bober100 Скачать
1 | 0
Ultra HD (UHD: 2K, 4K, 8K) — видео сверхвысокой чёткости [ 77.35 GB ] Стражи Галактики / Guardians of the Galaxy [2014 UHD BDRemux 2160p] 2xDUB [] +MVO+5xAVO bober100 Скачать
6 | 0
3D Фильмы [ 13.2 GB ] Стражи Галактики. Часть 2 3Д / Guardians of the Galaxy. Vol. 2 3D [2017 BDRip 1080p ] [Half OverUnder] DUB [] bober100 Скачать
2 | 0
Ultra HD (UHD: 2K, 4K, 8K) — видео сверхвысокой чёткости [ 34.29 GB ] Стражи Галактики. Часть 2 / Guardians of the Galaxy Vol. 2 [2017 UHD BDRip 2160p] [SDR] DUB [rus ukr] [] sheker187 Скачать
1 | 1
Ultra HD (UHD: 2K, 4K, 8K) — видео сверхвысокой чёткости [ 11.7 GB ] Стражи Галактики. Часть 2 / Guardians of the Galaxy Vol. 2 [2017 UHD BDRip 2160p] [rus ukr] [] sheker187 Скачать
4 | 0
Мультсериалы [ 72.57 GB ] Стражи Галактики / Guardians of the Galaxy / Сезон: 1-3 / Серии: 1-78 из 78 [2015-2019 мультфильм WEBRip 1080p] MVO [Невафильм] bober100 Скачать
2 | 0
Ultra HD (UHD: 2K, 4K, 8K) — видео сверхвысокой чёткости [ 67.26 GB ] Стражи Галактики. Часть 2 / Guardians of the Galaxy. Vol. 2 [2017 UHD Blu-ray 2160p] DUB [] bober100 Скачать
1 | 0


>> Регистрируемся здесь <<






Отзывы и комментарии о схеме читаем и пишем здесь: ---> Отзывы и комментарии о схеме

Новые благодарочки в телеграм довольных пользователей:
скриншот   скриншот   скриншот   скриншот   скриншот
    Дорогой пользователь! Огромная просьба, поблагодарите релизера, оцените раздачу и оставьте свои комментарий, если Вы скачали Стражи Галактики через торрент бесплатно! Внесите свою лепту в развитие PiratBit!
    Комментировать посты могут только пользователи прошедшие не сложную регистрацию
    Показать сообщения:    

    Стражи Галактики через торрент
    Скачать бесплатно Стражи Галактики
    Стражи Галактики скачать торрент
    Стражи Галактики смотреть онлайн
    Cкачать фильм Стражи Галактики бесплатно
    Стражи Галактики скачать торрент в хорошем качестве
    Стражи Галактики смотреть онлайн бесплатно в хорошем качестве


    Вы не можете начинать темы
    Вы не можете отвечать на сообщения
    Вы не можете редактировать свои сообщения
    Вы не можете удалять свои сообщения
    Вы не можете голосовать в опросах
    Вы не можете прикреплять файлы к сообщениям
    Вы можете скачивать файлы