Ссылка на приватное зеркало нашего сайта всего за 1$. Внимание количество ограничено!!!

2 сезон

iTunes

1 сезон

1

iTunes

iTunes

iTunes

1 сезон

RePack

30

ИГРА 18+

pack

ВАЖНО

!!Акция!!

Alien_RageХит недели

RePack

MK11
pack

Забери бонус

RePack

jed

!!Акция!!

Alien_Rage

RePack

fifa19

RePack

Assassins Creed: Odyssey

RePack

NEED FOR SPEED™ PAYBACK

4 сезон

9 сезон

Бесстыжие 9 сезон

Все сериалы

все сериалы на PB.wtf

RePack

FAR CRY 5
  

Стражи Галактики / Guardians of the Galaxy (Джеймс Ганн ) [2014, фантастика, боевик, приключения, BDRip 720p, IMAX, DUB, MVO, AVO] pb.wtf

Стражи Галактики через торрент pb.wtf

Размер: 9.38 GB | Добавлен: 5 лет 10 мес. назад | Торрент скачан:404 раза
Скачать  

08-12-2014 18:15 Стражи Галактики Скачать торрент  

Стражи Галактики / Guardians of the Galaxy
«Мстители спасают лишь Землю бренную, а эти ребята спасают Вселенную»
IMAX Edition


Год выпуска: 2014
Страна: США, Великобритания
Жанр: фантастика, боевик, приключения
Продолжительность: 02:01:08
Перевод: Дублированный - [Лицензия]
Профессиональный многоголосый «Омикрон»
Авторский (одноголосый) Ю.Сербин

Субтитры: русские (Russian), русские (Forced), английские, английские (SDH), английские (SDH-COLORED)
Режиссер: Джеймс Ганн
В ролях: Крис Пратт , Зои Салдана , Дэйв Батиста , Брэдли Купер , Вин Дизель , Ли Пейс , Майкл Рукер , Карен Гиллан , Гленн Клоуз , Джимон Хонсу , Джон Си Райли , Бенисио Дель Торо
Описание::
Отважному путешественнику Питеру Квиллу попадает в руки таинственный артефакт, принадлежащий могущественному и безжалостному злодею Ронану, строящему коварные планы по захвату Вселенной. Питер оказывается в центре межгалактической охоты, где жертва - он сам.
Единственный способ спасти свою жизнь - объединиться с четверкой нелюдимых изгоев: воинственным енотом по кличке Ракета, человекоподобным деревом Грутом, смертельно опасной Гаморой и одержимым жаждой мести Драксом, также известным как Разрушитель. Когда Квилл понимает, какой силой обладает украденный артефакт и какую опасность он представляет для вселенной, одиночка пойдет на все, чтобы сплотить случайных союзников для решающей битвы за судьбу галактики.

Качество: BDRip 720p (исходник Blu-ray)
Контейнер (Расширение): MKV
Видео кодек: AVC
Аудио кодек: AC3
Видео: 1280x720 (16:9), 7666 Кбит/сек, 23,976 кадр/сек, 0,347 Бит/[Пиксели*Кадры]
Аудио №1: русский / AC3 / 5.1 / 48 kHz / 640 kbps / 16 bit |Дубляж, Blu-ray EUR|
Аудио №2: русский / AC3 / 5.1 / 48 kHz / 640 kbps / 16 bit |Многоголосый закадровый, «Омикрон»|
Аудио №3: русский / AC3 / 5.1 / 48 kHz / 640 kbps / 16 bit |Авторский, Ю.Сербин|
Аудио №4: украинский / AC3 / 5.1 / 48 kHz / 640 kbps / 16 bit
Аудио №5: английский / AC3 / 5.1 / 48 kHz / 640 kbps / 16 bit
Навигация по главам(Чаптеры): есть

Видеоряд от TayTO!Релиз от: Сообщество:

Код:

Format                                   : Matroska
Format version                           : Version 2
File size                                : 9.38 GiB
Duration                                 : 2h 1mn
Overall bit rate                         : 11.1 Mbps
Movie name                               : Strazhi Galaktiki.(2014).BDRip.720p.IMAX.[denis100]
Encoded date                             : UTC 2014-12-08 17:47:06
Writing application                      : mkvmerge v5.8.0 ('No Sleep / Pillow') built on Sep  2 2012 15:37:04
Writing library                          : libebml v1.2.3 + libmatroska v1.3.0

Video
ID                                       : 1
Format                                   : AVC
Format/Info                              : Advanced Video Codec
Format profile                           : High@L4.1
Format settings, CABAC                   : Yes
Format settings, ReFrames                : 9 frames
Codec ID                                 : V_MPEG4/ISO/AVC
Duration                                 : 2h 1mn
Bit rate                                 : 7 667 Kbps
Width                                    : 1 280 pixels
Height                                   : 720 pixels
Display aspect ratio                     : 16:9
Frame rate                               : 23.976 fps
Color space                              : YUV
Chroma subsampling                       : 4:2:0
Bit depth                                : 8 bits
Scan type                                : Progressive
Bits/(Pixel*Frame)                       : 0.347
Stream size                              : 6.49 GiB (69%)
Title                                    : Strazhi Galaktiki.(2014).BDRip.720p.IMAX.[denis100].TayTO!
Writing library                          : x264 core 142 r2431+42 c69a006 tMod [8-bit@all X86_64]
Encoding settings                        : cabac=1 / ref=9 / deblock=1:-3:-3 / analyse=0x3:0x133 / me=esa / subme=11 / psy=1 / fade_compensate=0.00 / psy_rd=1.04:0.00 / mixed_ref=1 / me_range=32 / chroma_me=1 / trellis=2 / 8x8dct=1 / cqm=0 / deadzone=21,11 / fast_pskip=0 / chroma_qp_offset=-2 / threads=12 / lookahead_threads=3 / sliced_threads=0 / nr=0 / decimate=0 / interlaced=0 / bluray_compat=0 / constrained_intra=0 / fgo=0 / bframes=12 / b_pyramid=2 / b_adapt=2 / b_bias=0 / direct=3 / weightb=1 / open_gop=0 / weightp=2 / keyint=250 / keyint_min=23 / scenecut=40 / intra_refresh=0 / rc=crf / mbtree=0 / crf=14.5000 / qcomp=0.64 / qpmin=0:0:0 / qpmax=69:69:69 / qpstep=4 / ip_ratio=1.30 / pb_ratio=1.20 / aq=1:0.84 / aq-sensitivity=10.00 / aq-factor=1.00:1.00:1.00 / aq2=0 / aq3=0
Language                                 : English
Default                                  : Yes
Forced                                   : No
Matrix coefficients                      : BT.709-5, BT.1361, IEC 61966-2-4 709, SMPTE RP177

Audio #1
ID                                       : 2
Format                                   : AC-3
Format/Info                              : Audio Coding 3
Mode extension                           : CM (complete main)
Codec ID                                 : A_AC3
Duration                                 : 2h 1mn
Bit rate mode                            : Constant
Bit rate                                 : 640 Kbps
Channel(s)                               : 6 channels
Channel positions                        : Front: L C R, Side: L R, LFE
Sampling rate                            : 48.0 KHz
Bit depth                                : 16 bits
Compression mode                         : Lossy
Stream size                              : 555 MiB (6%)
Title                                    : Дубляж, Blu-ray EUR
Language                                 : Russian
Default                                  : Yes
Forced                                   : No

Audio #2
ID                                       : 3
Format                                   : AC-3
Format/Info                              : Audio Coding 3
Mode extension                           : CM (complete main)
Codec ID                                 : A_AC3
Duration                                 : 2h 1mn
Bit rate mode                            : Constant
Bit rate                                 : 640 Kbps
Channel(s)                               : 6 channels
Channel positions                        : Front: L C R, Side: L R, LFE
Sampling rate                            : 48.0 KHz
Bit depth                                : 16 bits
Compression mode                         : Lossy
Stream size                              : 555 MiB (6%)
Title                                    : Многоголосый закадровый, «Омикрон»
Language                                 : Russian
Default                                  : No
Forced                                   : No

Audio #3
ID                                       : 4
Format                                   : AC-3
Format/Info                              : Audio Coding 3
Mode extension                           : CM (complete main)
Codec ID                                 : A_AC3
Duration                                 : 2h 1mn
Bit rate mode                            : Constant
Bit rate                                 : 640 Kbps
Channel(s)                               : 6 channels
Channel positions                        : Front: L C R, Side: L R, LFE
Sampling rate                            : 48.0 KHz
Bit depth                                : 16 bits
Compression mode                         : Lossy
Stream size                              : 555 MiB (6%)
Title                                    : Авторский, Ю.Сербин
Language                                 : Russian
Default                                  : No
Forced                                   : No

Audio #4
ID                                       : 5
Format                                   : AC-3
Format/Info                              : Audio Coding 3
Mode extension                           : CM (complete main)
Codec ID                                 : A_AC3
Duration                                 : 2h 1mn
Bit rate mode                            : Constant
Bit rate                                 : 640 Kbps
Channel(s)                               : 6 channels
Channel positions                        : Front: L C R, Side: L R, LFE
Sampling rate                            : 48.0 KHz
Bit depth                                : 16 bits
Compression mode                         : Lossy
Stream size                              : 555 MiB (6%)
Title                                    : Дубляж, Disney / Buena Vista
Language                                 : Ukrainian
Default                                  : No
Forced                                   : No

Audio #5
ID                                       : 6
Format                                   : AC-3
Format/Info                              : Audio Coding 3
Mode extension                           : CM (complete main)
Codec ID                                 : A_AC3
Duration                                 : 2h 1mn
Bit rate mode                            : Constant
Bit rate                                 : 640 Kbps
Channel(s)                               : 6 channels
Channel positions                        : Front: L C R, Side: L R, LFE
Sampling rate                            : 48.0 KHz
Bit depth                                : 16 bits
Compression mode                         : Lossy
Stream size                              : 555 MiB (6%)
Title                                    : English
Language                                 : English
Default                                  : No
Forced                                   : No

Text #1
ID                                       : 7
Format                                   : UTF-8
Codec ID                                 : S_TEXT/UTF8
Codec ID/Info                            : UTF-8 Plain Text
Title                                    : Russian
Language                                 : Russian
Default                                  : No
Forced                                   : No

Text #2
ID                                       : 8
Format                                   : UTF-8
Codec ID                                 : S_TEXT/UTF8
Codec ID/Info                            : UTF-8 Plain Text
Title                                    : Forced
Language                                 : Russian
Default                                  : Yes
Forced                                   : No

Text #3
ID                                       : 9
Format                                   : UTF-8
Codec ID                                 : S_TEXT/UTF8
Codec ID/Info                            : UTF-8 Plain Text
Language                                 : English
Default                                  : No
Forced                                   : No

Text #4
ID                                       : 10
Format                                   : UTF-8
Codec ID                                 : S_TEXT/UTF8
Codec ID/Info                            : UTF-8 Plain Text
Title                                    : SDH
Language                                 : English
Default                                  : No
Forced                                   : No

Text #5
ID                                       : 11
Format                                   : UTF-8
Codec ID                                 : S_TEXT/UTF8
Codec ID/Info                            : UTF-8 Plain Text
Title                                    : SDH-COLORED
Language                                 : English
Default                                  : No
Forced                                   : No

Menu
00:00:00.000                             : en:Prologue
00:04:05.703                             : en:Morag
00:11:21.806                             : en:Ronan The Accuser
00:15:21.712                             : en:A Man Of Honor
00:20:54.419                             : en:The Kyln
00:27:11.212                             : en:Crimes Against The Galaxy
00:33:58.828                             : en:Escaping The Kyln
00:44:28.290                             : en:Knowhere
00:50:53.008                             : en:I Do Not Dance
00:55:17.564                             : en:The Collector
00:59:45.206                             : en:Facing Off With Ronan
01:06:06.921                             : en:Something Incredibly Heroic
01:14:46.023                             : en:12 Percent Of A Plan
01:22:20.644                             : en:The Fleet Approaches
01:26:29.726                             : en:Inside The Dark Aster
01:30:23.876                             : en:Destroying Xandar
01:35:58.377                             : en:Protecting The Guardians
01:40:46.749                             : en:Guardians Of The Galaxy
01:47:35.365                             : en:Guardians Pardoned
01:53:16.623                             : en:End Credits
02:00:10.828                             : en:End Tag

pb.wtf



Скачать Стражи Галактики через торрент http://i67.fastpic.ru/big/2014/1208/0f/aff6e459122d22e12c22828683e1fb0f.png Скачать фильм Стражи Галактики через торрент бесплантно в хорошем качестве Описание::Отважному путешественнику Питеру Квиллу попадает в руки таинственный артефакт, принадлежащий могущественному и безжалостному ... 10 10 8
Торрент: Зарегистрирован [2014-12-08 18:15] · скачан: 404 раз
Статус: √ проверено
Размер: 9.38 GB
Как cкачать? Как скачать Стражи Галактики через торрент | qTorrent

% Раздел Тема Автор DL S | L
3D Фильмы [ 8.54 GB ] Стражи Галактики. Часть 2 в 3D / Guardians of the Galaxy Vol. 2 in 3D [2017 BDRip 1080p ] Анаглиф от R.G. HD-Films slaventi-69 Скачать
1 | 1
T Релизы по Парсеру [Игры, Сериалы и Фильмы и другое...] [ 2.37 GB ] Стражи Галактики / Guardians of the Galaxy [2014 HDRip-AVC] [IMAX Version] + [AVO] killermax2013 Скачать
2 | 0
Ultra HD (UHD: 2K, 4K, 8K) — видео сверхвысокой чёткости [ 59.14 GB ] Стражи Галактики / Guardians of the Galaxy [2014 UHD Blu-Ray 2160p] DUB [] bober100 Скачать
1 | 0
Ultra HD (UHD: 2K, 4K, 8K) — видео сверхвысокой чёткости [ 77.35 GB ] Стражи Галактики / Guardians of the Galaxy [2014 UHD BDRemux 2160p] 2xDUB [] +MVO+5xAVO bober100 Скачать
3 | 0
3D Фильмы [ 13.2 GB ] Стражи Галактики. Часть 2 3Д / Guardians of the Galaxy. Vol. 2 3D [2017 BDRip 1080p ] [Half OverUnder] DUB [] bober100 Скачать
1 | 0
Ultra HD (UHD: 2K, 4K, 8K) — видео сверхвысокой чёткости [ 34.29 GB ] Стражи Галактики. Часть 2 / Guardians of the Galaxy Vol. 2 [2017 UHD BDRip 2160p] [SDR] DUB [rus ukr] [] sheker187 Скачать
1 | 0
Ultra HD (UHD: 2K, 4K, 8K) — видео сверхвысокой чёткости [ 11.7 GB ] Стражи Галактики. Часть 2 / Guardians of the Galaxy Vol. 2 [2017 UHD BDRip 2160p] [rus ukr] [] sheker187 Скачать
2 | 0

28-11-2019 20:33  

Отключить всю рекламу на сайте

    Дорогой пользователь! Огромная просьба, поблагодарите релизера, оцените раздачу и оставьте свои комментарий, если Вы скачали Стражи Галактики через торрент бесплатно! Внесите свою лепту в развитие PiratBit!
    Комментировать посты могут только пользователи прошедшие не сложную регистрацию
    Показать сообщения:    

    Стражи Галактики через торрент
    Скачать бесплатно Стражи Галактики
    Стражи Галактики скачать торрент
    Стражи Галактики смотреть онлайн
    Cкачать фильм Стражи Галактики бесплатно
    Стражи Галактики скачать торрент в хорошем качестве
    Стражи Галактики смотреть онлайн бесплатно в хорошем качестве


    Вы не можете начинать темы
    Вы не можете отвечать на сообщения
    Вы не можете редактировать свои сообщения
    Вы не можете удалять свои сообщения
    Вы не можете голосовать в опросах
    Вы не можете прикреплять файлы к сообщениям
    Вы можете скачивать файлы