Ссылка на приватное зеркало нашего сайта всего за 1$. Внимание количество ограничено!!!

2 сезон

iTunes

1 сезон

1

2 сезон

2 сезон

iTunes

1 сезон

RePack

30

Ultimate

ВАЖНО

ИГРА 18+

pack

RePack

MK11
pack

Забери бонус

RePack

jed

!!Акция!!

Alien_Rage

RePack

fifa19

RePack

Assassins Creed: Odyssey

RePack

NEED FOR SPEED™ PAYBACK

4 сезон

9 сезон

Бесстыжие 9 сезон

Все сериалы

все сериалы на PB.wtf

RePack

FAR CRY 5
  

Сошедшие с небес / Рухнувшие небеса / Falling Skies / Сезон: 4 / Серии: 1-12 из 12 (Грег Биман) [2014, Фантастика,катастрофа, боевик, WEB-DLRip] MVO (Sony Sci-Fi) + Original pb.wtf

Сошедшие с небес через торрент pb.wtf

Размер: 5.28 GB | Добавлен: 5 лет 10 мес. назад | Торрент скачан:211 раз
Скачать  

08-12-2014 21:01 Сошедшие с небес Скачать торрент  

Рухнувшие небеса / Falling Skies
Год выпуска: 2014
Страна: США
Жанр: катастрофа, боевик, фантастика
Продолжительность: ~00:43:00
Перевод: Профессиональный многоголосый /Sony SciFi/

Режиссер: Грег Биман



В ролях: Колин Каннингэм, Максим Найт, Ноа Уайл, Мун Бладгуд, Мфо Коахо, Сара Картер, Коннор Джессуп, Брюс Грэй, Дейл Дай, Дрю Рой

Описание: Инопланетное вторжение стало для землян полной неожиданностью. Несколько выживших объединяются, чтобы ежедневно бороться за выживание и попытаться наладить связь с такими же как они «счастливчиками» из других городов, и дать отпор захватчикам из космоса.

Качество: WEB-DLRip
Формат: AVI
Видео кодек: XviD
Аудио кодек: MP3
Видео: 720x400 (16/9), 23.976 fps, ~1 230 Kbps
Аудио#1: RUS: 48 kHz, MPEG Layer 3, 2 ch, 128 kbps /Sony SciFi/
Аудио#2: ENG: 48 kHz, MPEG Layer 3, 2 ch, 128 kbps
Релиз от
Добавлены 6-12 серии..Сезон закончен.
Внимание! Раздача ведётся путём добавления новых серий; при каждом добавлении создаётся новый торрент.
Чтобы начать докачку новой серии, пользователям необходимо сделать следующее:
1. Остановить скачивание.
2. Удалить старый торрент у себя из клиента (старые серии удалять не надо).
3. Скачать новый торрент и запустить его у себя в клиенте вместо старого, при этом указать клиенту путь в старую папку куда и должно происходить скачивание новых серий.
Ваш клиент при этом должен произвести хеширование (проверку) старой папки (если не производит сам - помогите ему сделать это), и будет докачивать только те серии которых у вас ещё нет. Старые серии при этом не удаляются, а продолжают раздаваться!
Eсли вы уже удалили старые серии, то предотвратить повторную закачку старых серий можно, отжав галочку в соответсвующих местах при запуске нового торрента.





Общее
Полное имя : F:\Рухнувшие небеса Falling Skies\falling.skies.s04e01-06.web-dlrip.rus.eng.to4ka.tv\falling.skies.s04e01.web-dlrip.rus.eng.to4ka.tv.avi
Формат : AVI
Формат/Информация : Audio Video Interleave
Размер файла : 450 Мбайт
Продолжительность : 42 м.
Общий поток : 1488 Кбит/сек
Программа кодирования : VirtualDubMod 1.6.0.0 SURROUND (build 2560/release)
Библиотека кодирования : VirtualDubMod build 2560/release

Видео
Идентификатор : 0
Формат : MPEG-4 Visual
Профиль формата : Advanced Simple@L5
Параметр BVOP формата : 1
Параметр QPel формата : Нет
Параметр GMC формата : Без точки перехода
Параметр матрицы формата : Default (MPEG)
Идентификатор кодека : XVID
Идентификатор кодека/Подсказка : XviD
Продолжительность : 42 м.
Битрейт : 1218 Кбит/сек
Ширина : 720 пикселей
Высота : 400 пикселей
Соотношение сторон : 16:9
Частота кадров : 23,976 кадра/сек
Цветовое пространство : YUV
Субдискретизация насыщенности : 4:2:0
Битовая глубина : 8 бит
Тип развёртки : Прогрессивная
Метод сжатия : С потерями
Бит/(Пиксели*Кадры) : 0.176
Размер потока : 369 Мбайт (82%)
Библиотека кодирования : XviD 1.2.1 (UTC 2008-12-04)

Аудио #1
Идентификатор : 1
Формат : MPEG Audio
Версия формата : Version 1
Профиль формата : Layer 3
Режим : Joint stereo
Расширение режима : MS Stereo
Идентификатор кодека : 55
Идентификатор кодека/Подсказка : MP3
Продолжительность : 42 м.
Вид битрейта : Постоянный
Битрейт : 128 Кбит/сек
Каналы : 2 канала
Частота : 48,0 КГц
Метод сжатия : С потерями
Размер потока : 38,7 Мбайт (9%)
Выравнивание : Соединение по промежуткам
Продолжительность промежутка : 42 мс. (1,00 видеокадр)
Время предзагрузки промежутка : 504 мс.

Аудио #2
Идентификатор : 2
Формат : MPEG Audio
Версия формата : Version 1
Профиль формата : Layer 3
Режим : Joint stereo
Расширение режима : MS Stereo
Идентификатор кодека : 55
Идентификатор кодека/Подсказка : MP3
Продолжительность : 42 м.
Вид битрейта : Постоянный
Битрейт : 128 Кбит/сек
Каналы : 2 канала
Частота : 48,0 КГц
Метод сжатия : С потерями
Размер потока : 38,7 Мбайт (9%)
Выравнивание : Соединение по промежуткам
Продолжительность промежутка : 42 мс. (1,00 видеокадр)
Время предзагрузки промежутка : 504 мс.
Библиотека кодирования : LAME3.99r
Настройки программы : -m j -V 4 -q 2 -lowpass 17 -b 128


Рухнувшие небеса скачать торрент


pb.wtf



Скачать Сошедшие с небес через торрент http://pic.kartinco.top/images/8/l9le8.jpg Скачать фильм Сошедшие с небес через торрент бесплантно в хорошем качестве Описание: Инопланетное вторжение стало для землян полной неожиданностью. Несколько выживших объединяются, чтобы ежедневно бороться за ... 9.8 10 18
Торрент: Зарегистрирован [2015-01-26 18:15] · скачан: 211 раз
Статус: √ проверено
Размер: 5.28 GB
Как cкачать? Как скачать Сошедшие с небес через торрент | qTorrent



Последний раз редактировалось: Assasinca (2015-01-26 18:15), всего редактировалось 1 раз

28-11-2019 20:33  

Отключить всю рекламу на сайте

08-12-2014 23:57 Сошедшие с небес Скачать торрент  

Посмотрим.... Отзывы на форумах хорошие, говорят кому нравиться серьял Ходячие, значит понравиться!!!pb.wtf



09-12-2014 15:28 Сошедшие с небес Скачать торрент  

ну слава богу.думал забросили проэкт.любителям вторжений рекомендуюpb.wtf



    Дорогой пользователь! Огромная просьба, поблагодарите релизера, оцените раздачу и оставьте свои комментарий, если Вы скачали Сошедшие с небес через торрент бесплатно! Внесите свою лепту в развитие PiratBit!
    Комментировать посты могут только пользователи прошедшие не сложную регистрацию
    Показать сообщения:    

    Сошедшие с небес через торрент
    Скачать бесплатно Сошедшие с небес
    Сошедшие с небес скачать торрент
    Сошедшие с небес смотреть онлайн
    Cкачать фильм Сошедшие с небес бесплатно
    Сошедшие с небес скачать торрент в хорошем качестве
    Сошедшие с небес смотреть онлайн бесплатно в хорошем качестве


    Вы не можете начинать темы
    Вы не можете отвечать на сообщения
    Вы не можете редактировать свои сообщения
    Вы не можете удалять свои сообщения
    Вы не можете голосовать в опросах
    Вы не можете прикреплять файлы к сообщениям
    Вы можете скачивать файлы