Ссылка на приватное зеркало всего за 1$. Внимание количество ограничено!!!

iTunes

iTunes

iTunes

1

iTunes

iTunes

iTunes

iTunes

iTunes

30
pack

$ от Little Big

ВАЖНО

!!Акция!!

Alien_RageХит недели

RePack

Resident Evil 21

ИГРА 18+

pack

RePack

jed

!!Акция!!

Alien_Rage

RePack

fifa19

RePack

Assassins Creed: Odyssey

RePack

NEED FOR SPEED™ PAYBACK

4 сезон

9 сезон

Бесстыжие 9 сезон

Все сериалы

все сериалы на PB.wtf

RePack

FAR CRY 5
  

Я – начало / I Origins (Майк Кэхилл ) [2014, фантастика, драма, WEB-DL 720p, Профессиональное (многоголосое) [лицензия / iTunes] pb.wtf

Я – начало через торрент pb.wtf

Качают: 1 [ 0 KB/s ]
Размер: 3.64 GB | Добавлен: 5 лет 7 мес. назад | Торрент скачан:879 раз
Скачать  

08-12-2014 22:33 Я – начало Скачать торрент  


Я – начало / I Origins


Год выпуска:2014
Страна: США
Жанр:фантастика, драма
Продолжительность:01:48:07
Перевод:Профессиональное (многоголосое) [лицензия]
Субтитры: Russian [Владимир Фадеев], English
Режиссер:Майк Кэхилл

  • В ролях:

    Майкл Питт (Ian), Стивен Ян (Kenny), Астрид Берже-Фрисби (Sofi), Брит Марлинг (Karen), Дориен Маклоги (7-Eleven Attendant), Чарльз В. Грэй (Marriage Clerk), Джон Шиумо (TV Anchor), Фараша Бэйлок (Posh Waitress), Ако (Nurse), Кристофер Сантамария (Baby Tobias), Себастьян Сантамария (Baby Tobias), Кэра Сеймур (Dr. Simmons)
  • Описание:
    Молекулярный биолог и его напарница по лаборатории делают потрясающее открытие, способное коренным образом изменить современное общество.

  • Мировая премьера:18 января 2014

    Качество: WEB-DLRip (720p)
    Формат:MKV
    Видео кодек: AVC
    Аудио кодек:AC3
    Видео: 3961 Кбит/с, 1280x536, 23,976 fps
    Аудио №1: AC3 / 5.1 / 48 kHz / 384 kbps / Русский
    Аудио №2: AC3 / 5.1 / 48 kHz / 384 kbps / Английский


    Код:

    General
    \I.Origins.2014.WEB-DL.720p.CINEMANIA.mkv
    Format : Matroska
    Format version : Version 4 / Version 2
    File size : 3.69 GiB
    Duration : 1h 48mn
    Overall bit rate : 4 890 Kbps
    Movie name : Release Group CINEMANIA
    Encoded date : UTC 2014-12-04 17:09:56
    Writing application : mkvmerge v7.3.0 ('Nouages') 64bit built on Oct 22 2014 18:53:34
    Writing library : libebml v1.3.0 + libmatroska v1.4.1

    Video
    ID : 1
    Format : AVC
    Format/Info : Advanced Video Codec
    Format profile : Main@L3.1
    Format settings, CABAC : No
    Format settings, ReFrames : 2 frames
    Codec ID : V_MPEG4/ISO/AVC
    Duration : 1h 48mn
    Bit rate : 3 961 Kbps
    Width : 1 280 pixels
    Height : 536 pixels
    Display aspect ratio : 2.40:1
    Frame rate mode : Constant
    Frame rate : 23.976 fps
    Color space : YUV
    Chroma subsampling : 4:2:0
    Bit depth : 8 bits
    Scan type : Progressive
    Bits/(Pixel*Frame) : 0.241
    Stream size : 2.99 GiB (81%)

    Language : English
    Default : Yes
    Forced : No
    Color primaries : BT.709
    Transfer characteristics : BT.709
    Matrix coefficients : BT.709

    Audio #1
    ID : 2
    Format : AC-3
    Format/Info : Audio Coding 3
    Mode extension : CM (complete main)
    Format settings, Endianness : Big
    Codec ID : A_AC3
    Duration : 1h 48mn
    Bit rate mode : Constant
    Bit rate : 384 Kbps
    Channel(s) : 6 channels
    Channel positions : Front: L C R, Side: L R, LFE
    Sampling rate : 48.0 KHz
    Bit depth : 16 bits
    Compression mode : Lossy
    Stream size : 346 MiB (9%)
    Title : PashaUp
    Language : Russian
    Default : Yes
    Forced : Yes

    Audio #2
    ID : 3
    Format : AC-3
    Format/Info : Audio Coding 3
    Mode extension : CM (complete main)
    Format settings, Endianness : Big
    Codec ID : A_AC3
    Duration : 1h 48mn
    Bit rate mode : Constant
    Bit rate : 384 Kbps
    Channel(s) : 6 channels
    Channel positions : Front: L C R, Side: L R, LFE
    Sampling rate : 48.0 KHz
    Bit depth : 16 bits
    Compression mode : Lossy
    Stream size : 297 MiB (8%)
    Language : English
    Default : No
    Forced : No

    Text #1
    ID : 5
    Format : UTF-8
    Codec ID : S_TEXT/UTF8
    Codec ID/Info : UTF-8 Plain Text
    Title : Владимир Фадеев
    Language : Russian
    Default : No
    Forced : No

    Text #2
    ID : 6
    Format : UTF-8
    Codec ID : S_TEXT/UTF8
    Codec ID/Info : UTF-8 Plain Text
    Language : English
    Default : No
    Forced : No

    Menu
    00:00:00.000 : en:Chapter 01
    00:02:40.000 : en:Chapter 02
    00:05:32.000 : en:Chapter 03
    00:07:23.000 : en:Chapter 04
    00:12:34.000 : en:Chapter 05
    00:13:51.000 : en:Chapter 06
    00:16:42.000 : en:Chapter 07
    00:18:59.000 : en:Chapter 08
    00:21:31.000 : en:Chapter 09
    00:25:35.000 : en:Chapter 10
    00:29:36.000 : en:Chapter 11
    00:32:49.000 : en:Chapter 12
    00:36:23.000 : en:Chapter 13
    00:42:27.000 : en:Chapter 14
    00:46:35.000 : en:Chapter 15
    00:50:48.000 : en:Chapter 16
    00:54:13.000 : en:Chapter 17
    00:58:22.000 : en:Chapter 18
    01:02:22.000 : en:Chapter 19
    01:05:21.000 : en:Chapter 20
    01:07:45.000 : en:Chapter 21
    01:12:48.000 : en:Chapter 22
    01:16:27.000 : en:Chapter 23
    01:18:35.000 : en:Chapter 24
    01:21:14.000 : en:Chapter 25
    01:23:55.000 : en:Chapter 26
    01:26:01.000 : en:Chapter 27
    01:27:47.000 : en:Chapter 28
    01:32:39.000 : en:Chapter 29
    01:37:33.000 : en:Chapter 30
    01:38:57.000 : en:Chapter 31
    01:42:17.000 : en:Chapter 32

    Скриншоты:

    Срочно! Нужна помощь! Жмите

    © Оформление by Ворон
    pb.wtf



  • Скачать Я – начало через торрент http://pic.kartinco.top/images/6/ordi9.jpg Скачать фильм Я – начало через торрент бесплантно в хорошем качестве Описание:Молекулярный биолог и его напарница по лаборатории делают потрясающее открытие, способное коренным образом изменить современное ... 10 10 21
    Info! Золотая раздача, скачанное не засчитывается.
    Торрент: Зарегистрирован [2014-12-08 22:33] · скачан: 879 раз
    Статус: √ проверено
    Размер: 3.64 GB
    Как cкачать? Как скачать Я – начало через торрент | qTorrent

    % Раздел Тема Автор DL S | L
    Фильмы (Blu-ray, BD-Remux, HDDVD) [ 27.98 GB ] Я – начало / I Origins [2014 Blu-Ray Remux 1080p MVO Ворон Скачать
    1 | 0
    Фильмы [HD 720p, 1080p] (Хороший звук DUB, MVO) [ 12.03 GB ] Я - Начало / I Origins [2014 BDRip 1080p] MVO bober100 Скачать
    1 | 0
    Фильмы 2014 [DVDrip, WEB-DLRip, HDrip] [ 1.41 GB ] Я – начало / I Origins [2014 HDRip многоголосый [] Ворон Скачать
    1 | 0
    Фильмы [HD 720p, 1080p] (Хороший звук DUB, MVO) [ 6.77 GB ] Я - начало / I Origins [2014 BDRip 1080p HEVC ] Мичман37 Скачать
    1 | 0
    Фильмы 2014 [DVDrip, WEB-DLRip, HDrip] [ 2.05 GB ] Я – начало / I Origins [2014 WEB-DLRipПрофессиональное [лицензия / ] Ворон Скачать
    1 | 0
    Фильмы [HD 720p, 1080p] (Хороший звук DUB, MVO) [ 4.66 GB ] Я – начало / I Origins [2014 BDRip 720p многоголосый [] Ворон Скачать
    1 | 0
    Фильмы без перевода [ 940 MB ] Я - Начало / I Origins [2014 WEB-DLRip-AVC] 3x[Sub] + [Orig] killermax2013 Скачать
    1 | 0

    28-11-2019 20:33  

    Отключить всю рекламу на сайте

    09-12-2014 01:03 Я – начало Скачать торрент  

    Спасибо за фильм с переводом!pb.wtf



    09-12-2014 09:06 Я – начало Скачать торрент  

    Спасибо за многоголоску. Фильм огонь :)pb.wtf



      Дорогой пользователь! Огромная просьба, поблагодарите релизера, оцените раздачу и оставьте свои комментарий, если Вы скачали Я – начало через торрент бесплатно! Внесите свою лепту в развитие PiratBit!
      Комментировать посты могут только пользователи прошедшие не сложную регистрацию
      Показать сообщения:    

      Я – начало через торрент
      Скачать бесплатно Я – начало
      Я – начало скачать торрент
      Я – начало смотреть онлайн
      Cкачать фильм Я – начало бесплатно
      Я – начало скачать торрент в хорошем качестве
      Я – начало смотреть онлайн бесплатно в хорошем качестве


      Вы не можете начинать темы
      Вы не можете отвечать на сообщения
      Вы не можете редактировать свои сообщения
      Вы не можете удалять свои сообщения
      Вы не можете голосовать в опросах
      Вы не можете прикреплять файлы к сообщениям
      Вы можете скачивать файлы