Ссылка на приватное зеркало нашего сайта всего за 1$. Внимание количество ограничено!!!

2 сезон

iTunes

1 сезон

1

iTunes

iTunes

iTunes

1 сезон

RePack

30

ИГРА 18+

pack

ВАЖНО

!!Акция!!

Alien_RageХит недели

RePack

MK11
pack

Забери бонус

RePack

jed

!!Акция!!

Alien_Rage

RePack

fifa19

RePack

Assassins Creed: Odyssey

RePack

NEED FOR SPEED™ PAYBACK

4 сезон

9 сезон

Бесстыжие 9 сезон

Все сериалы

все сериалы на PB.wtf

RePack

FAR CRY 5
  

Неприкасаемые / The Untouchables (Брайан Де Пальма / Brian De Palma) [1987 г., триллер, драма, криминал, история, BDRip 720p] pb.wtf

Неприкасаемые через торрент pb.wtf

Размер: 8.32 GB | Добавлен: 5 лет 10 мес. назад | Торрент скачан:103 раза
Скачать  

09-12-2014 02:12 Неприкасаемые Скачать торрент  

Неприкасаемые / The Untouchables (1987) BDRip«Never stop fighting till the fight is done»
Год выпуска: 1987
Производство: USA / Paramount Pictures
Жанр: триллер, драма, криминал, история
Длительность: 01:59:27
Перевод: профессиональный (многоголосый закадровый), профессиональный (двуголосый закадровый), авторский (одноголосый закадровый)
Вид субтитров: вшитые, отключаемые
Язык субтитров: русские, украинские, английские

Режиссер: Брайан Де Пальма
Оператор: Стивен Х. Берум
Композитор: Эннио Морриконе
Актеры: Кевин Костнер, Шон Коннери, Чарльз Мартин Смит, Энди Гарсиа, Роберт Де Ниро, Ричард Брэдфорд, Джек Кихоу, Брэд Салливан, Билли Драго, Патришия Кларксон

Описание фильма: В основе сюжета — борьба полиции с королем преступного мира, знаменитым гангстером Аль Капоне, которого, как известно, удалось засадить за решетку лишь как лицо, уклоняющееся от уплаты налогов...

"Критики и зрители единодушны во мнении. «Неприкасаемые» Брайана Де Пальмы – это настоящий шедевр, блистательное, неистовое и реалистичное изображение главаря мафии, заправлявшего в Чикаго во времена сухого закона… и хранителя правопорядка, который поклялся его наказать."


Рейтинг MPAA: R - Детям до 17 лет обязательно присутствие родителей
Дата мировой премьеры: 2 июня 1987
Дата выхода DVD релиза: 8 декабря 2009, «Юниверсал Пикчерс Рус»
Дата выхода Blu-Ray релиза: 5 апреля 2011, «Юниверсал Пикчерс Рус»

Качество: BDRip (720p)
Формат: MKV
Видео кодек: AVC/H.264
Аудио кодек: AC3
Видео: MPEG-4 AVC/H.264, 1280 x 544 (2,35:1), 5 750 kbps, 23.976 fps, 0.344 b/px
Аудио # 1: АС3, 6 ch, 640 kbps, 48 000 Hz [многоголосый закадровый (Позитив-Мультимедиа)]
Аудио # 2: АС3, 6 ch, 640 kbps, 48 000 Hz [двуголосый закадровый (Blu-ray CEE)]
Аудио # 3: АС3, 2 ch, 192 kbps, 48 000 Hz [двуголосый закадровый (НТВ)]
Аудио # 4: АС3, 2 ch, 192 kbps, 48 000 Hz [одноголосый закадровый (Л.Володарский)]
Аудио # 5: АС3, 6 ch, 640 kbps, 48 000 Hz [одноголосый закадровый (В.Горчаков)]
Аудио # 6: АС3, 6 ch, 640 kbps, 48 000 Hz [одноголосый закадровый (Ю.Живов)]
Аудио # 7: АС3, 6 ch, 640 kbps, 48 000 Hz [одноголосый закадровый (А.Михалев)]
Аудио # 8: АС3, 6 ch, 640 kbps, 48 000 Hz [оригинальный]

Код:

Общее
Уникальный идентификатор                 : 178010126981886458960554015487489749056 (0x85EB80DE8D0F14A68492307A4B243040)
Полное имя                               : D:\[1987] Неприкасаемые [BDRip] [720p].mkv
Формат                                   : Matroska
Версия формата                           : Version 4 / Version 2
Размер файла                             : 8,32 Гбайт
Продолжительность                        : 1 ч. 59 м.
Общий поток                              : 9977 Кбит/сек
Название фильма                          : Неприкасаемые / The Untouchables (1987) BDRip [720p]
Дата кодирования                         : UTC 2014-11-11 16:35:10
Программа кодирования                    : mkvmerge v7.2.0 ('On Every Street') 32bit built on Sep 13 2014 15:42:11
Библиотека кодирования                   : libebml v1.3.0 + libmatroska v1.4.1
DURATION                                 : 01:59:27.168000000
NUMBER_OF_FRAMES                         : 223974
NUMBER_OF_BYTES                          : 573373440
_STATISTICS_WRITING_APP                  : mkvmerge v7.2.0 ('On Every Street') 32bit built on Sep 13 2014 15:42:11
_STATISTICS_WRITING_DATE_UTC             : 2014-11-11 16:35:10
_STATISTICS_TAGS                         : BPS DURATION NUMBER_OF_FRAMES NUMBER_OF_BYTES

Видео
Идентификатор                            : 1
Формат                                   : AVC
Формат/Информация                        : Advanced Video Codec
Профиль формата                          : High@L4.1
Параметр CABAC формата                   : Да
Параметр ReFrames формата                : 12 кадров
Идентификатор кодека                     : V_MPEG4/ISO/AVC
Продолжительность                        : 1 ч. 59 м.
Битрейт                                  : 5750 Кбит/сек
Ширина                                   : 1280 пикселей
Высота                                   : 544 пикселя
Соотношение сторон                       : 2,35:1
Режим частоты кадров                     : Постоянный
Частота кадров                           : 23,976 кадра/сек
Цветовое пространство                    : YUV
Субдискретизация насыщенности            : 4:2:0
Битовая глубина                          : 8 бит
Тип развёртки                            : Прогрессивная
Бит/(Пиксели*Кадры)                      : 0.344
Размер потока                            : 4,63 Гбайт (56%)
Заголовок                                : [1987] Неприкасаемые / The Untouchables [BDRip] [720p]
Библиотека кодирования                   : x264 core 114 r1900 60ef1f8
Настройки программы                      : cabac=1 / ref=12 / deblock=1:-3:-3 / analyse=0x3:0x113 / me=umh / subme=9 / psy=1 / psy_rd=1.00:0.00 / mixed_ref=1 / me_range=32 / chroma_me=1 / trellis=1 / 8x8dct=1 / cqm=0 / deadzone=21,11 / fast_pskip=0 / chroma_qp_offset=-2 / threads=18 / sliced_threads=0 / nr=0 / decimate=0 / interlaced=0 / constrained_intra=0 / bframes=6 / b_pyramid=2 / b_adapt=2 / b_bias=0 / direct=1 / weightb=1 / open_gop=0 / weightp=2 / keyint=250 / keyint_min=23 / scenecut=40 / intra_refresh=0 / rc_lookahead=40 / rc=2pass / mbtree=1 / bitrate=5750 / ratetol=1.0 / qcomp=0.60 / qpmin=0 / qpmax=69 / qpstep=4 / cplxblur=20.0 / qblur=0.5 / ip_ratio=1.40 / aq=1:0.80
Язык                                     : English
Default                                  : Да
Forced                                   : Нет
DURATION                                 : 01:59:27.160000000
NUMBER_OF_FRAMES                         : 171840
NUMBER_OF_BYTES                          : 5150197719
_STATISTICS_WRITING_APP                  : mkvmerge v7.2.0 ('On Every Street') 32bit built on Sep 13 2014 15:42:11
_STATISTICS_WRITING_DATE_UTC             : 2014-11-11 16:35:10
_STATISTICS_TAGS                         : BPS DURATION NUMBER_OF_FRAMES NUMBER_OF_BYTES

Аудио #1
Идентификатор                            : 2
Формат                                   : AC-3
Формат/Информация                        : Audio Coding 3
Расширение режима                        : CM (complete main)
Параметр Endianness формата              : Big
Идентификатор кодека                     : A_AC3
Продолжительность                        : 1 ч. 59 м.
Вид битрейта                             : Постоянный
Битрейт                                  : 640 Кбит/сек
Каналы                                   : 6 каналов
Расположение каналов                     : Front: L C R, Side: L R, LFE
Частота                                  : 48,0 КГц
Битовая глубина                          : 16 бит
Метод сжатия                             : С потерями
Размер потока                            : 547 Мбайт (6%)
Заголовок                                : Многоголосый закадровый (Позитив-Мультимедиа)
Язык                                     : Russian
Default                                  : Да
Forced                                   : Нет

Аудио #2
Идентификатор                            : 3
Формат                                   : AC-3
Формат/Информация                        : Audio Coding 3
Расширение режима                        : CM (complete main)
Параметр Endianness формата              : Big
Идентификатор кодека                     : A_AC3
Продолжительность                        : 1 ч. 59 м.
Вид битрейта                             : Постоянный
Битрейт                                  : 640 Кбит/сек
Каналы                                   : 6 каналов
Расположение каналов                     : Front: L C R, Side: L R, LFE
Частота                                  : 48,0 КГц
Битовая глубина                          : 16 бит
Метод сжатия                             : С потерями
Размер потока                            : 547 Мбайт (6%)
Заголовок                                : Двуголосый закадровый (Blu-ray CEE)
Язык                                     : Russian
Default                                  : Нет
Forced                                   : Нет

Аудио #3
Идентификатор                            : 4
Формат                                   : AC-3
Формат/Информация                        : Audio Coding 3
Расширение режима                        : CM (complete main)
Параметр Endianness формата              : Big
Идентификатор кодека                     : A_AC3
Продолжительность                        : 1 ч. 59 м.
Вид битрейта                             : Постоянный
Битрейт                                  : 192 Кбит/сек
Каналы                                   : 2 канала
Расположение каналов                     : Front: L R
Частота                                  : 48,0 КГц
Битовая глубина                          : 16 бит
Метод сжатия                             : С потерями
Размер потока                            : 164 Мбайт (2%)
Заголовок                                : Двуголосый закадровый (НТВ)
Язык                                     : Russian
Default                                  : Нет
Forced                                   : Нет

Аудио #4
Идентификатор                            : 5
Формат                                   : AC-3
Формат/Информация                        : Audio Coding 3
Расширение режима                        : CM (complete main)
Параметр Endianness формата              : Big
Идентификатор кодека                     : A_AC3
Продолжительность                        : 1 ч. 59 м.
Вид битрейта                             : Постоянный
Битрейт                                  : 192 Кбит/сек
Каналы                                   : 2 канала
Расположение каналов                     : Front: L R
Частота                                  : 48,0 КГц
Битовая глубина                          : 16 бит
Метод сжатия                             : С потерями
Размер потока                            : 164 Мбайт (2%)
Заголовок                                : Одноголосый закадровый (Л.Володарский)
Язык                                     : Russian
Default                                  : Нет
Forced                                   : Нет

Аудио #5
Идентификатор                            : 6
Формат                                   : AC-3
Формат/Информация                        : Audio Coding 3
Расширение режима                        : CM (complete main)
Параметр Endianness формата              : Big
Идентификатор кодека                     : A_AC3
Продолжительность                        : 1 ч. 59 м.
Вид битрейта                             : Постоянный
Битрейт                                  : 640 Кбит/сек
Каналы                                   : 6 каналов
Расположение каналов                     : Front: L C R, Side: L R, LFE
Частота                                  : 48,0 КГц
Битовая глубина                          : 16 бит
Метод сжатия                             : С потерями
Размер потока                            : 547 Мбайт (6%)
Заголовок                                : Одноголосый закадровый (В.Горчаков)
Язык                                     : Russian
Default                                  : Нет
Forced                                   : Нет

Аудио #6
Идентификатор                            : 7
Формат                                   : AC-3
Формат/Информация                        : Audio Coding 3
Расширение режима                        : CM (complete main)
Параметр Endianness формата              : Big
Идентификатор кодека                     : A_AC3
Продолжительность                        : 1 ч. 59 м.
Вид битрейта                             : Постоянный
Битрейт                                  : 640 Кбит/сек
Каналы                                   : 6 каналов
Расположение каналов                     : Front: L C R, Side: L R, LFE
Частота                                  : 48,0 КГц
Битовая глубина                          : 16 бит
Метод сжатия                             : С потерями
Размер потока                            : 547 Мбайт (6%)
Заголовок                                : Одноголосый закадровый (Ю.Живов)
Язык                                     : Russian
Default                                  : Нет
Forced                                   : Нет

Аудио #7
Идентификатор                            : 8
Формат                                   : AC-3
Формат/Информация                        : Audio Coding 3
Расширение режима                        : CM (complete main)
Параметр Endianness формата              : Big
Идентификатор кодека                     : A_AC3
Продолжительность                        : 1 ч. 59 м.
Вид битрейта                             : Постоянный
Битрейт                                  : 640 Кбит/сек
Каналы                                   : 6 каналов
Расположение каналов                     : Front: L C R, Side: L R, LFE
Частота                                  : 48,0 КГц
Битовая глубина                          : 16 бит
Метод сжатия                             : С потерями
Размер потока                            : 547 Мбайт (6%)
Заголовок                                : Одноголосый закадровый (А.Михалев)
Язык                                     : Russian
Default                                  : Нет
Forced                                   : Нет

Аудио #8
Идентификатор                            : 9
Формат                                   : AC-3
Формат/Информация                        : Audio Coding 3
Расширение режима                        : CM (complete main)
Параметр Endianness формата              : Big
Идентификатор кодека                     : A_AC3
Продолжительность                        : 1 ч. 59 м.
Вид битрейта                             : Постоянный
Битрейт                                  : 640 Кбит/сек
Каналы                                   : 6 каналов
Расположение каналов                     : Front: L C R, Side: L R, LFE
Частота                                  : 48,0 КГц
Битовая глубина                          : 16 бит
Метод сжатия                             : С потерями
Размер потока                            : 547 Мбайт (6%)
Заголовок                                : Оригинальный
Язык                                     : English
Default                                  : Нет
Forced                                   : Нет

Текст #1
Идентификатор                            : 10
Формат                                   : UTF-8
Идентификатор кодека                     : S_TEXT/UTF8
Идентификатор кодека/Информация          : UTF-8 Plain Text
Заголовок                                : Русские
Язык                                     : Russian
Default                                  : Нет
Forced                                   : Нет

Текст #2
Идентификатор                            : 11
Формат                                   : UTF-8
Идентификатор кодека                     : S_TEXT/UTF8
Идентификатор кодека/Информация          : UTF-8 Plain Text
Заголовок                                : English
Язык                                     : English
Default                                  : Нет
Forced                                   : Нет

Оскар, 1988 год

Победитель (1):

*** Лучшая мужская роль второго плана (Шон Коннери)

Номинации (3):

*** Лучшие декорации
*** Лучшие костюмы
*** Лучший оригинальный саундтрек

Золотой глобус, 1988 год

Победитель (1):

*** Лучшая мужская роль второго плана (Шон Коннери)

Номинации (1):

*** Лучший саундтрек

Британская академия, 1988 год

Победитель (1):

*** Лучший саундтрек

Номинации (3):

*** Лучшая мужская роль второго плана (Шон Коннери)
*** Лучшие костюмы
*** Лучшая работа художника-постановщика

Сезар, 1988 год

Номинации (1):

*** Лучший фильм на иностранном языке
*** Фильм снят по мотивам мемуаров Элиота Несса, написанных Оскаром Фрейли, «Неприкасаемые» (The Untouchables, 1957).

*** В декорации личной парикмахерской Капоне в «Lexington Hotel» присутствовали небольшие предметы (бутылочки из-под одеколона, кисточка для бритья), принадлежавшие Аль Капоне.

*** Брайан Де Пальма встречался с Бобом Хоскинсом, для того чтобы обсудить роль Аль Капоне, которую получил бы Боб, если от неё отказался Роберт Де Ниро. Так как Де Ниро сыграл в фильме, Хоскинс получил письмо от Брайана с благодарностью за время, которое Хоскинс согласился потратить на данный проект, и чек на сумму в $200,000. В последствии Боб позвонил Де Пальме и поинтересовался — нет ли еще каких-нибудь фильмов, где Брайан откажется занять Боба в главной роли.

*** Альберт Х. Волф, входивший в группу настоящих «Неприкасаемых», был консультантом на съёмочной площадке, а также помогал Кевину Костнеру лучше вжиться в роль Элиота Несса.

*** Мэл Гибсон и Харрисон Форд отказались от роли Элиота Несса.

*** У Роберта Де Ниро не было времени, для того чтобы набрать лишний вес, нужный для роли, поэтому он носил специальные подкладки, которые делали его толще.

*** Кевин Костнер, Шон Коннери и Энди Гарсия прошли специальный курс подготовки, включавший в себя обращение с различными видами оружия и изучение тактики действий полиции.

*** Кандидатуры Майкла Дугласа и Дон Джонсона рассматривались на роль Элиота Несса.

*** По словам Брайана Де Пальмы и Арта Линсона, Шон Коннери предложил снять сцену разговора Несса и Мэлоуна в католической церкви. Изначально их разговор должен был состояться на улице.

*** «Броненосец Потемкин» (1925) послужил вдохновением Брайану Де Пальмы для сцены на лестнице на железнодорожной станции.

*** На пачке «Лаки Страйка» Элиота Несса можно заметить красный круг. Однако до начала Второй мировой войны на сигаретах этой марки был нарисован зеленый круг.

*** Несмотря на то, что кленовый лист является символом Канады с XIX века, впервые на национальном флаге он появился лишь в 1965 году. Это значит, на бутылках канадского виски, который конфискует полиция, никак не могло быть изображения современного варианта флага.

*** Монти (Роберт Суон), чиновник канадской границы, имеет звание капитана. Однако канадские пограничники не пользуются американскими званиями. Правильней было бы называть Монти инспектором.

*** Действие фильма происходит в 1930-м году, и Элиот Несс слушает по радио шоу Эмоса и Энди. Однако впервые это шоу вышло в радиоэфир лишь в декабре 1936, а та самая конкретная программа и вовсе датируется 16 ноября 1952 года.

*** Хотя существование Несса, его команды «неприкасаемых» и, конечно же, Аль Капоне, не вызывает сомнений, многое в фильме просто выдумано сценаристом и не соответствует реальным фактам.

*** Для своей роли Роберт Де Ниро специально нашел портных Аль Капоне и заказал им точно такую же, как у Капоне, одежду. Вживаясь в образ, он даже настоял на том, чтобы носить рубашки из такого же шелка, из которого их шили гангстеру. Это притом, что сами рубашки в кадр так и не попали.

*** В первоначальной версии сценария, финальная перестрелка между людьми Капоне и Несом происходила в остановившемся поезде. Брайана Де Пальма перенес место действия сцены на лестницу железнодорожной станции, после того как выяснилось, что найти и восстановить поезд 1930-х годов будет слишком дорого.

*** Сцена ужина, где Аль Капоне (Роберт Де Ниро) неожиданно забивает до смерти бейсбольной битой двух своих людей, основана на событиях 7 мая 1929. Двое наиболее опасных людей Капоне, Альберт Анселми и Джон Скализе, решили убить Капоне и возглавить его банду. Капоне узнал об этом и пригласил на ужин наиболее влиятельных членов своей организации, включая Анселми и Скализе. Во время ужина Капоне забил до смерти бейсбольной битой Анселми и Скализе, после чего выстрелил им в голову.

*** Персонаж Оскар Уоллас (Чарльз Мартин Смит) частично основан на Фрэнке Уилсоне, агенте Налоговой службы, работавшим над обвинениями против Капоне за неуплату налогов. Уилсон работал над этим делом с 1928 года и в реальной жизни никогда не пересекался с Несом и его людьми. Уилсон не был убит людьми Капоне, хотя Капоне назначил награду за его голову.

*** В реальной жизни Фрэнк Нитти не погиб так, как показано в фильме. Он возглавил империю Капоне, после того как последнего посадили. В 1943 году Нитти совершил самоубийство.

*** Во время съемки сцены убийства Мэлоуна, Шон Коннери не ожидал, что петарды с «кровью» будут разрываться с такой силой. После первых дублей Коннери был доставлен в госпиталь, в глаза ему попали осколки и искусственная кровь.

*** В фильме правая рука Аля Капоне, «андербосс» Фрэнк Нитти, роль которого исполнил Билли Драго, погибает от руки Элиота Несса. На самом же деле Фрэнк Нитти был осужден вместе с Алем Капоне за неуплату налогов в 1930-ом году. Нитти получил только 18 месяцев лишения свободы, в то время как Капоне был осужден на 11 лет. После освобождения Нитти, СМИ провозгласили его новым боссом «Чикагского Синдиката», который при Нитти начал получать огромную прибыль. Однако, в 40-х годах дела «Синдиката» ухудшились. Фрэнку Нитти грозил срок за вымогательство и к тому же он успел настроить против себя остальных боссов «Чикагского Синдиката». 19 марта 1943-го года, опасаясь заточения в тюрьме, страдавший клаустрофобией Нитти покончил с собой, застрелившись на Центральной Иллинойской железной дороге в Риверсайде, штат Иллинойс.
Скриншоты:
Время раздачи: 24/7 до 5-ти скачавших, затем по мере возможностиpb.wtf



Скачать Неприкасаемые через торрент http://i4.imageban.ru/out/2014/11/11/858a2dfe681ceea51c10bbfbfefd21fb.png Скачать фильм Неприкасаемые через торрент бесплантно в хорошем качестве Описание фильма: В основе сюжета — борьба полиции с королем преступного мира, знаменитым гангстером Аль Капоне, которого, как известно, ... 10 10 7
Info! Золотая раздача, скачанное не засчитывается.
Торрент: Зарегистрирован [2014-12-09 02:12] · скачан: 103 раз
Статус: √ проверено
Размер: 8.32 GB
Как cкачать? Как скачать Неприкасаемые через торрент | qTorrent

% Раздел Тема Автор DL S | L
Фильмы [HD 720p, 1080p] (Хороший звук DUB, MVO) [ 15.77 GB ] Неприкасаемые / The Untouchables [1987 BDRip 1080p by msltel] 2 x MVO DVO 4 x AVO msltel Скачать
1 | 0
Фильмы [HD 720p, 1080p] (Хороший звук DUB, MVO) [ 6.08 GB ] Неприкасаемые / The Untouchables [1987 BDRip 720p by msltel] 2 x MVO DVO 4 x AVO msltel Скачать
1 | 0
Классика зарубежного кино [ 1.46 GB ] Неприкасаемые / The Untouchables [1987 история HDRip многоголосый] Russian Mafia Скачать
1 | 0
Фильмы до 2000 г. [ 2.05 GB ] Неприкасаемые / The Untouchables [1987 биография история BDRip-AVC] shuller Скачать
1 | 0

28-11-2019 20:33  

Отключить всю рекламу на сайте

09-12-2014 05:01 Неприкасаемые Скачать торрент  

в своё время не посмотрел, исправляюсь! pb.wtf



    Дорогой пользователь! Огромная просьба, поблагодарите релизера, оцените раздачу и оставьте свои комментарий, если Вы скачали Неприкасаемые через торрент бесплатно! Внесите свою лепту в развитие PiratBit!
    Комментировать посты могут только пользователи прошедшие не сложную регистрацию
    Показать сообщения:    

    Неприкасаемые через торрент
    Скачать бесплатно Неприкасаемые
    Неприкасаемые скачать торрент
    Неприкасаемые смотреть онлайн
    Cкачать фильм Неприкасаемые бесплатно
    Неприкасаемые скачать торрент в хорошем качестве
    Неприкасаемые смотреть онлайн бесплатно в хорошем качестве


    Вы не можете начинать темы
    Вы не можете отвечать на сообщения
    Вы не можете редактировать свои сообщения
    Вы не можете удалять свои сообщения
    Вы не можете голосовать в опросах
    Вы не можете прикреплять файлы к сообщениям
    Вы можете скачивать файлы