Доктор Стрэндж

Лицензия

Добыча

Дубляж

Уэнсдэй

1 сезон

Тор

Дубляж

В эфире

Дубляж

Там, где раки поют

MVO

Властелин колец

1 сезон

Deluxe

pack

Рекомендуем

30

Пиратка

ВАЖНО

ВАЖНО

Ghostwire

Пиратка

jed

RePack

nioh2

RePack

RDR2

RePack

NEED FOR SPEED™ PAYBACK

RePack

скачать торрент

Кинопоиск HD

Острые козырьки 6 сезон

6 сезон

FAR CRY 6

RePack

скачать торрент

Лицензия

скачать торрент

MVO

1

1 сезон

скачать торрент

1 сезон

скачать торрент

Лицензия

  

Боевик Джексон / Action Jackson (Крэйг Р. Бэксли / Craig R. Baxley) [1988 г., боевик, триллер, комедия, криминал, BDRip 720p]

Боевик Джексон через торрент pb.wtf

Размер: 9.35 GB | Добавлен: 8 лет назад | Торрент скачан:14 раз
Смотреть онлайн | Скачать   

09-12-2014 02:28 Боевик Джексон Скачать торрент  

Боевик Джексон / Action Jackson (1988) BDRip«NAME: Jericho Jackson NICKNAME: 'Action' HOME: Detroit PROFESSION: Cop EDUCATION: Harvard Law HOBBY: Fighting Crime WEAPON: You're looking at 'em»
Год выпуска: 1988
Производство: USA / Lorimar Film Entertainment, Silver Pictures
Жанр: боевик, триллер, комедия, криминал
Длительность: 01:35:58
Перевод: профессиональный (полное дублирование), профессиональный (многоголосый закадровый), авторский (одноголосый закадровый)
Вид субтитров: вшитые, отключаемые
Язык субтитров: английские (SDH)

Режиссер: Крэйг Р. Бэксли
Актеры: Карл Уэзерс, Крэйг Т. Нельсон, Вэнити, Шэрон Стоун, Томас Ф. Уилсон, Билл Дьюк, Роберт Дави, Джек Тибо, Роджер Аарон Браун, Стэн Фостер

Описание фильма: Сержант полиции Джексон, по прозвищу «Боевик», бросает вызов жестоким убийцам, состоящим на службе у безжалостного автомагната, который рассчитывает путем убийств расчистить себе дорогу к политической власти.

Преследуемый своими же коллегами-полицейскими по сфабрикованному обвинению, Джексон предпринимает отчаянную попытку разоблачения…


Рейтинг MPAA: R - Детям до 17 лет обязательно присутствие родителей
Дата мировой премьеры: 12 февраля 1988

Качество: BDRip (720p)
Формат: MKV
Видео кодек: AVC/H.264
Аудио кодек: AC3, DTS
Видео: MPEG-4 AVC/H.264, 1272 x 720 (16:9), 10 600 kbps, 23.976 fps, 0.480 b/px
Аудио # 1: АС3, 2 ch, 192 kbps, 48 000 Hz [дублированный]
Аудио # 2: АС3, 2 ch, 192 kbps, 48 000 Hz [многоголосый закадровый (ВГТРК)]
Аудио # 3: DTS, 2 ch, 1509 kbps, 48 000 Hz [одноголосый закадровый (А.Михалев)]
Аудио # 4: DTS, 2 ch, 1509 kbps, 48 000 Hz [оригинальный]

Код:

Общее
Уникальный идентификатор                 : 232721857066653645846447170211861451289 (0xAF14996D48F8B70EBCBF10DF12BB5219)
Полное имя                               : E:\Video\[1988] Боевик Джексон [BDRip] [720p].mkv
Формат                                   : Matroska
Версия формата                           : Version 4 / Version 2
Размер файла                             : 9,35 Гбайт
Продолжительность                        : 1 ч. 35 м.
Общий поток                              : 13,9 Мбит/сек
Название фильма                          : Боевик Джексон / Action Jackson (1988) BDRip [720p]
Дата кодирования                         : UTC 2014-12-02 13:18:37
Программа кодирования                    : mkvmerge v7.2.0 ('On Every Street') 32bit built on Sep 13 2014 15:42:11
Библиотека кодирования                   : libebml v1.3.0 + libmatroska v1.4.1
DURATION                                 : 01:35:36.898000000
NUMBER_OF_FRAMES                         : 1317
NUMBER_OF_BYTES                          : 45178
_STATISTICS_WRITING_APP                  : mkvmerge v7.2.0 ('On Every Street') 32bit built on Sep 13 2014 15:42:11
_STATISTICS_WRITING_DATE_UTC             : 2014-12-02 13:18:37
_STATISTICS_TAGS                         : BPS DURATION NUMBER_OF_FRAMES NUMBER_OF_BYTES

Видео
Идентификатор                            : 1
Формат                                   : AVC
Формат/Информация                        : Advanced Video Codec
Профиль формата                          : [email protected]
Параметр CABAC формата                   : Да
Параметр ReFrames формата                : 9 кадров
Идентификатор кодека                     : V_MPEG4/ISO/AVC
Продолжительность                        : 1 ч. 35 м.
Битрейт                                  : 10,6 Мбит/сек
Ширина                                   : 1272 пикселя
Высота                                   : 720 пикселей
Соотношение сторон                       : 16:9
Режим частоты кадров                     : Постоянный
Частота кадров                           : 23,976 кадра/сек
Цветовое пространство                    : YUV
Субдискретизация насыщенности            : 4:2:0
Битовая глубина                          : 8 бит
Тип развёртки                            : Прогрессивная
Бит/(Пиксели*Кадры)                      : 0.480
Размер потока                            : 6,88 Гбайт (74%)
Заголовок                                : [1988] Боевик Джексон / Action Jackson [BDRip] [720p]
Библиотека кодирования                   : x264 core 138 r2359+704+48 3f879a0 tMod [[email protected] X86_64]
Настройки программы                      : cabac=1 / ref=9 / deblock=1:-3:-3 / analyse=0x3:0x113 / me=umh / subme=11 / psy=1 / fade_compensate=0.00 / psy_rd=1.00:0.02 / mixed_ref=1 / me_range=24 / chroma_me=1 / trellis=2 / 8x8dct=1 / cqm=0 / deadzone=21,11 / fast_pskip=0 / chroma_qp_offset=-3 / threads=6 / lookahead_threads=1 / sliced_threads=0 / nr=0 / decimate=1 / interlaced=0 / bluray_compat=0 / constrained_intra=0 / fgo=0 / bframes=11 / b_pyramid=2 / b_adapt=2 / b_bias=0 / direct=3 / weightb=1 / open_gop=0 / weightp=2 / keyint=250 / keyint_min=23 / scenecut=40 / intra_refresh=0 / rc_lookahead=120 / rc=2pass / mbtree=0 / bitrate=10550 / ratetol=1.0 / qcomp=0.70 / qpmin=0:0:0 / qpmax=69:69:69 / qpstep=4 / cplxblur=20.0 / qblur=0.5 / vbv_maxrate=50000 / vbv_bufsize=62500 / nal_hrd=none / ip_ratio=1.40 / pb_ratio=1.30 / aq=4:0.85 / aq-sensitivity=10.00 / aq-factor=1.00:1.00:1.00 / aq2=0 / aq3=0
Язык                                     : English
Default                                  : Да
Forced                                   : Нет
Коэффициенты матрицы                     : BT.709
colour_range                             : Limited
DURATION                                 : 01:35:58.003000000
NUMBER_OF_FRAMES                         : 138054
NUMBER_OF_BYTES                          : 7587041733
_STATISTICS_WRITING_APP                  : mkvmerge v7.2.0 ('On Every Street') 32bit built on Sep 13 2014 15:42:11
_STATISTICS_WRITING_DATE_UTC             : 2014-12-02 13:18:37
_STATISTICS_TAGS                         : BPS DURATION NUMBER_OF_FRAMES NUMBER_OF_BYTES

Аудио #1
Идентификатор                            : 2
Формат                                   : AC-3
Формат/Информация                        : Audio Coding 3
Расширение режима                        : CM (complete main)
Параметр Endianness формата              : Big
Идентификатор кодека                     : A_AC3
Продолжительность                        : 1 ч. 35 м.
Вид битрейта                             : Постоянный
Битрейт                                  : 192 Кбит/сек
Каналы                                   : 2 канала
Расположение каналов                     : Front: L R
Частота                                  : 48,0 КГц
Битовая глубина                          : 16 бит
Метод сжатия                             : С потерями
Размер потока                            : 132 Мбайт (1%)
Заголовок                                : Дублированный
Язык                                     : Russian
Default                                  : Да
Forced                                   : Нет

Аудио #2
Идентификатор                            : 3
Формат                                   : AC-3
Формат/Информация                        : Audio Coding 3
Расширение режима                        : CM (complete main)
Параметр Endianness формата              : Big
Идентификатор кодека                     : A_AC3
Продолжительность                        : 1 ч. 35 м.
Вид битрейта                             : Постоянный
Битрейт                                  : 192 Кбит/сек
Каналы                                   : 2 канала
Расположение каналов                     : Front: L R
Частота                                  : 48,0 КГц
Битовая глубина                          : 16 бит
Метод сжатия                             : С потерями
Размер потока                            : 132 Мбайт (1%)
Заголовок                                : Многоголосый закадровый (ВГТРК)
Язык                                     : Russian
Default                                  : Нет
Forced                                   : Нет

Аудио #3
Идентификатор                            : 4
Формат                                   : DTS
Формат/Информация                        : Digital Theater Systems
Режим                                    : 16
Параметр Endianness формата              : Big
Идентификатор кодека                     : A_DTS
Продолжительность                        : 1 ч. 35 м.
Вид битрейта                             : Постоянный
Битрейт                                  : 1509 Кбит/сек
Каналы                                   : 2 канала
Расположение каналов                     : Front: L R
Частота                                  : 48,0 КГц
Битовая глубина                          : 24 бит
Метод сжатия                             : С потерями
Размер потока                            : 1,01 Гбайт (11%)
Заголовок                                : Одноголосый закадровый (А.Михалев)
Язык                                     : Russian
Default                                  : Нет
Forced                                   : Нет

Аудио #4
Идентификатор                            : 5
Формат                                   : DTS
Формат/Информация                        : Digital Theater Systems
Режим                                    : 16
Параметр Endianness формата              : Big
Идентификатор кодека                     : A_DTS
Продолжительность                        : 1 ч. 35 м.
Вид битрейта                             : Постоянный
Битрейт                                  : 1509 Кбит/сек
Каналы                                   : 2 канала
Расположение каналов                     : Front: L R
Частота                                  : 48,0 КГц
Битовая глубина                          : 24 бит
Метод сжатия                             : С потерями
Размер потока                            : 1,01 Гбайт (11%)
Заголовок                                : Оригинальный
Язык                                     : English
Default                                  : Нет
Forced                                   : Нет

Текст
Идентификатор                            : 6
Формат                                   : UTF-8
Идентификатор кодека                     : S_TEXT/UTF8
Идентификатор кодека/Информация          : UTF-8 Plain Text
Заголовок                                : English (SDH)
Язык                                     : English
Default                                  : Нет
Forced                                   : Нет

Меню
00:00:00.000                             : en:00:00:00.000
00:09:35.532                             : en:00:09:35.532
00:20:25.223                             : en:00:20:25.223
00:30:38.252                             : en:00:30:38.252
00:41:29.445                             : en:00:41:29.445
00:50:48.670                             : en:00:50:48.670
01:00:25.246                             : en:01:00:25.246
01:12:28.970                             : en:01:12:28.970
01:24:06.707                             : en:01:24:06.707
01:31:49.587                             : en:01:31:49.587

Золотая малина, 1989 год

Номинации (1):

*** Худшая женская роль (Вэнити)
Скриншоты:
Время раздачи: 24/7 до 5-ти скачавших, затем по мере возможности



Скачать Боевик Джексон через торрент http://i1-imageban-ru.translate.goog/out/2014/12/02/6897d677ed2eb9c2940daa3c9a11eaed.png Скачать, смотреть онлайн Боевик Джексон бесплантно в хорошем качестве Описание фильма: Сержант полиции Джексон, по прозвищу «Боевик», бросает вызов жестоким убийцам, состоящим на службе у безжалостного ... 10 10 4
Торрент: Зарегистрирован [2014-12-09 02:28] · скачан: 14 раз
Статус: √ проверено
Размер: 9.35 GB
Как cкачать? Как скачать Боевик Джексон через торрент | UTorrent

28-11-2019 20:33  


Отключить вcю реклaмy на сайте, в т.ч. и в плеере онлайн просмотра!

    Дорогой пользователь! Огромная просьба, поблагодарите релизера, оцените раздачу и оставьте свои комментарий, если Вы скачали Боевик Джексон через торрент бесплатно!!
    Комментировать посты могут только пользователи прошедшие не сложную регистрацию
    Показать сообщения:    


    Боевик Джексон через торрент
    Скачать бесплатно Боевик Джексон
    Боевик Джексон скачать торрент
    Боевик Джексон смотреть онлайн
    Cкачать фильм Боевик Джексон бесплатно
    Боевик Джексон скачать торрент в хорошем качестве
    Боевик Джексон смотреть онлайн бесплатно в хорошем качестве
    Вы не можете начинать темы
    Вы не можете отвечать на сообщения
    Вы не можете редактировать свои сообщения
    Вы не можете удалять свои сообщения
    Вы не можете голосовать в опросах
    Вы не можете прикреплять файлы к сообщениям
    Вы можете скачивать файлы
    Боевик Джексон / Action Jackson [1988 г., боевик, триллер, комедия, криминал, BDRip 720p] смотреть онлайн, скачать торрент picoco.icu