Ссылка на приватное зеркало всего за 1$. Внимание количество ограничено!!!

iTunes

iTunes

iTunes

1

iTunes

iTunes

iTunes

iTunes

iTunes

30
pack

Новость дня

ВАЖНО

!!Акция!!

Alien_RageХит недели

RePack

Resident Evil 21

ИГРА 18+

pack

RePack

jed

!!Акция!!

Alien_Rage

RePack

fifa19

RePack

Assassins Creed: Odyssey

RePack

NEED FOR SPEED™ PAYBACK

4 сезон

9 сезон

Бесстыжие 9 сезон

Все сериалы

все сериалы на PB.wtf

RePack

FAR CRY 5
  

Неприкасаемые / The Untouchables (Брайан Де Пальма /Brian De Palma) [1987 г., триллер, драма, криминал, история, HDRip, Профессиональный многоголосый] pb.wtf

Неприкасаемые через торрент pb.wtf

Размер: 1.46 GB | Добавлен: 5 лет 4 мес. назад | Торрент скачан:79 раз
Скачать  

09-12-2014 07:47 Неприкасаемые Скачать торрент  

Неприкасаемые / The Untouchables
Год выпуска: 1987
Страна: США
Жанр: триллер, драма, криминал, история
Продолжительность: 01:59:20
Перевод: Профессиональный (многоголосый закадровый) (Позитив)
Субтитры: нет

Режиссер: Брайан Де Пальма /Brian De Palma



В ролях: Кевин Костнер /Kevin Kostner/, Шон Коннери /Sean Connery/, Чарлз Мартин Смит /Charles Martin Smith/, Энди Гарсиа /Andy Garcia/, Роберт Де Ниро /Robert De Niro/, Брэд Салливан /Brad Sullivan/, Джек Кихоу /Jack Kehoe/, Ричард Брэдфорд /Richard Bradford/, Билли Драго /Billy Drago/, Патришиа Кларксон /Patricia Clarkson/

Описание: Этот гангстерский фильм — одна из лучших работ мастера жанра Брайана Де Пальма. В основе увлекательного напряженного сюжета — борьба полиции с королём преступного мира, знаменитым гангстером Аль Капоне (Роберт Де Ниро), которого, как известно, удалось засадить за решётку лишь как лицо, уклоняющееся от уплаты налогов. В Чикаго 1931 года криминальная жизнь бьёт ключом. Для того, чтобы остановить хладнокровного и неуязвимого Аль Капоне, правительством создана специальная команда «Неприкасаемых». Рассказывая о времени сухого закона в Америке, фильм представляет собой историю юриста Элиота Несса (Кевин Костнер) и его попыток очистить Чикаго от гангстеров. Его команда полицейских не принимала взяточничество и двурушничество, которые стали нормой для многих их коллег; они назывались «Неприкасаемые». Их главным врагом был Аль Капоне, король преступного мира Америки, колосс, у ног которого лежал весь Чикаго...

Качество: HDRip
Формат: AVI
Видео кодек: XviD
Аудио кодек: AC3
Видео: 720x304 (2.37:1), 23.976 fps, XviD MPEG-4 ~1289 kbps avg, 0.25 bit/pixel
Аудио: 48 kHz, AC3 Dolby Digital, 3/2 (L,C,R,l,r) + LFE ch, ~448.00 kbps avg
Общее
Полное имя : D:\Скачанное\Neprikasaemye.1987.avi
Формат : AVI
Формат/Информация : Audio Video Interleave
Размер файла : 1,46 Гбайт
Продолжительность : 1 ч. 59 м.
Общий поток : 1747 Кбит/сек
Название фильма : Неприкасаемые / The Untouchables

Программа кодирования : VirtualDubMod 1.5.10.2 (build 2540/release)

Видео
Идентификатор : 0
Формат : MPEG-4 Visual
Профиль формата : Advanced Simple@L5
Параметр BVOP формата : 1
Параметр QPel формата : Нет
Параметр GMC формата : Без точки перехода
Параметр матрицы формата : Выборочная
Идентификатор кодека : XVID
Идентификатор кодека/Подсказка : XviD
Продолжительность : 1 ч. 59 м.
Битрейт : 1290 Кбит/сек
Ширина : 720 пикселей
Высота : 304 пикселя
Соотношение сторон : 2,35:1
Частота кадров : 23,976 кадра/сек
Цветовое пространство : YUV
Субдискретизация насыщенности : 4:2:0
Битовая глубина : 8 бит
Тип развёртки : Прогрессивная
Метод сжатия : С потерями
Бит/(Пиксели*Кадры) : 0.246
Размер потока : 1,08 Гбайт (74%)
Библиотека кодирования : XviD 1.2.1 (UTC 2008-12-04)

Аудио
Идентификатор : 1
Формат : AC-3
Формат/Информация : Audio Coding 3
Расширение режима : CM (complete main)
Параметр Endianness формата : Big
Идентификатор кодека : 2000
Продолжительность : 1 ч. 59 м.
Вид битрейта : Постоянный
Битрейт : 448 Кбит/сек
Каналы : 6 каналов
Расположение каналов : Front: L C R, Side: L R, LFE
Частота : 48,0 КГц
Битовая глубина : 16 бит
Метод сжатия : С потерями
Размер потока : 382 Мбайт (26%)
Выравнивание : Разделение по промежуткам
Продолжительность промежутка : 42 мс. (1,00 видеокадр)
Время предзагрузки промежутка : 500 мс.
скриншот   скриншот   скриншот   скриншот  
pb.wtf



Скачать Неприкасаемые через торрент http://pic.kartinco.top/images/8/5fa4u.jpg Скачать фильм Неприкасаемые через торрент бесплантно в хорошем качестве Описание: Этот гангстерский фильм — одна из лучших работ мастера жанра Брайана Де Пальма. В основе увлекательного напряженного сюжета — ... 7.8 10 8
Info! Золотая раздача, скачанное не засчитывается.
Торрент: Зарегистрирован [2014-12-09 07:47] · скачан: 79 раз
Статус: √ проверено
Размер: 1.46 GB
Как cкачать? Как скачать Неприкасаемые через торрент | qTorrent

% Раздел Тема Автор DL S | L
Фильмы [HD 720p, 1080p] (Хороший звук DUB, MVO) [ 15.77 GB ] Неприкасаемые / The Untouchables [1987 BDRip 1080p by msltel] 2 x MVO DVO 4 x AVO msltel Скачать
1 | 0
Фильмы [HD 720p, 1080p] (Хороший звук DUB, MVO) [ 6.08 GB ] Неприкасаемые / The Untouchables [1987 BDRip 720p by msltel] 2 x MVO DVO 4 x AVO msltel Скачать
1 | 0
Фильмы [HD 720p, 1080p] (Хороший звук DUB, MVO) [ 8.32 GB ] Неприкасаемые / The Untouchables [1987 история BDRip 720p] Kavasar Скачать
1 | 0
Фильмы до 2000 г. [ 2.05 GB ] Неприкасаемые / The Untouchables [1987 биография история BDRip-AVC] shuller Скачать
1 | 0

28-11-2019 20:33  

Отключить всю рекламу на сайте

    Дорогой пользователь! Огромная просьба, поблагодарите релизера, оцените раздачу и оставьте свои комментарий, если Вы скачали Неприкасаемые через торрент бесплатно! Внесите свою лепту в развитие PiratBit!
    Комментировать посты могут только пользователи прошедшие не сложную регистрацию
    Показать сообщения:    

    Неприкасаемые через торрент
    Скачать бесплатно Неприкасаемые
    Неприкасаемые скачать торрент
    Неприкасаемые смотреть онлайн
    Cкачать фильм Неприкасаемые бесплатно
    Неприкасаемые скачать торрент в хорошем качестве
    Неприкасаемые смотреть онлайн бесплатно в хорошем качестве


    Вы не можете начинать темы
    Вы не можете отвечать на сообщения
    Вы не можете редактировать свои сообщения
    Вы не можете удалять свои сообщения
    Вы не можете голосовать в опросах
    Вы не можете прикреплять файлы к сообщениям
    Вы можете скачивать файлы