2 сезон

iTunes

MVO

1

2 сезон

iTunes

iTunes

1 сезон

RePack

30

Ultimate

ВАЖНО

ИГРА 18+

pack

RePack

MK11
pack

Легкие деньги

RePack

jed

RePack

fifa19

RePack

RDR2

RePack

NEED FOR SPEED™ PAYBACK

4 сезон

9 сезон

Бесстыжие 9 сезон

Все сериалы

все сериалы на PB.wtf

RePack

FAR CRY 5

Anonymous, доброй ночи, мы не успеваем собрать деньги на оплату серверов за декабрь и январь, помогите нам пожалуйста в это трудное время. В качестве благодарности мы отключим Вам всю рекламу на сайте (укажите свой ник в строку Ваше имя)!

×
  
Magnet ссылка

Любовь в словах и картинках / Words and Pictures (Фред Скеписи) [2013 г., драма, мелодрама, комедия, HDRip, Дубляж [iTunes]] pb.wtf

Любовь в словах и картинках через торрент pb.wtf

Размер: 1.37 GB | Добавлен: 6 лет 1 мес. назад | Торрент скачан:169 раз
Скачать  

09-12-2014 16:25 Любовь в словах и картинках Скачать торрент  

Любовь в словах и картинках / Words and Pictures
Год выпуска: 2013
Страна: США
Жанр: драма, мелодрама, комедия
Продолжительность: 01:55:44
Перевод: Дубляж [iTunes]

Режиссер: Фред Скеписи
Продюссер: Кертис Берч, Джералд Ди Пего, Фред Скеписи
Сценарий: Джералд Ди Пего
Бюджет: $2 171 257
Премьера в мире: 7 сентября 2013

IMDB 6.60 (2918)


В ролях: Клайв Оуэн, Жюльет Бинош, Валери Тиан, Навид Негабан, Брюс Дэвисон, Эми Бреннеман, Адам ДиМарко, Джош Ссеттуба, Джанет Киддер, Christian Scheider

Описание: Учитель английского языка и преподаватель искусства встречаются в престижной подготовительной школе. Между ними складываются непростые взаимоотношения. Более того они положили начало войне — студенты теперь пытаются доказать, что сильнее — слово или изображение. Но настоящая война идет против внутренних демонов преподавателей, пока их души борются за воссоединение...

Качество: HDRip
Формат: AVI
Видео кодек: XviD
Аудио кодек: AC3
Видео: XviD, 1 297 Кбит/с, 720x304, 23.976 fps
Аудио#1: AC3, 6 ch, 384 Кбит/с, 48.0 KHz

General
Complete name : /home/sb1855/files/Kartink1.2013.D.HDRip.1400MB.avi
Format : AVI
Format/Info : Audio Video Interleave
File size : 1.37 GiB
Duration : 1h 55mn
Overall bit rate : 1 690 Kbps
Writing application : VirtualDubMod 1.5.10.2 (build 2540/release)
Writing library : VirtualDubMod build 2540/release

Video
ID : 0
Format : MPEG-4 Visual
Format profile : Advanced Simple@L5
Format settings, BVOP : 2
Format settings, QPel : No
Format settings, GMC : No warppoints
Format settings, Matrix : Default (MPEG)
Codec ID : XVID
Codec ID/Hint : XviD
Duration : 1h 55mn
Bit rate : 1 297 Kbps
Width : 720 pixels
Height : 304 pixels
Display aspect ratio : 2.35:1
Frame rate : 23.976 fps
Color space : YUV
Chroma subsampling : 4:2:0
Bit depth : 8 bits
Scan type : Progressive
Compression mode : Lossy
Bits/(Pixel*Frame) : 0.247
Stream size : 1.05 GiB (77%)
Writing library : XviD 1.2.1 (UTC 2008-12-04)

Audio
ID : 1
Format : AC-3
Format/Info : Audio Coding 3
Mode extension : CM (complete main)
Format settings, Endianness : Big
Codec ID : 2000
Duration : 1h 55mn
Bit rate mode : Constant
Bit rate : 384 Kbps
Channel(s) : 6 channels
Channel positions : Front: L C R, Side: L R, LFE
Sampling rate : 48.0 KHz
Bit depth : 16 bits
Compression mode : Lossy
Stream size : 318 MiB (23%)
Alignment : Split accross interleaves
Interleave, duration : 42 ms (1.00 video frame)
Interleave, preload duration : 500 ms

скриншот   скриншот   скриншот  pb.wtf



Скачать Любовь в словах и картинках через торрент https://pic.kartinco.top/images/8/ajev6.jpg Скачать фильм Любовь в словах и картинках через торрент бесплантно в хорошем качестве Описание: Учитель английского языка и преподаватель искусства встречаются в престижной подготовительной школе. Между ними складываются ... 9.9 10 9
Торрент: Зарегистрирован [2014-12-09 16:25] · скачан: 169 раз
Статус: √ проверено
Размер: 1.37 GB
Как cкачать? Как скачать Любовь в словах и картинках через торрент | UTorrent

% Раздел Тема Автор DL S | L
Фильмы [HD 720p, 1080p] (Хороший звук DUB, MVO) [ 11.89 GB ] Любовь в словах и картинках / Words and Pictures [2013 BDRip 1080p ] Ворон Скачать
1 | 0
Фильмы 2013 [DVDrip, WEB-DLRip, HDrip] [ 2.06 GB ] Любовь в словах и картинках / Words and Pictures [2013 HDRip многоголосый - НТВ _KaisiK_ Скачать
1 | 0

28-11-2019 20:33  

Отключить всю рекламу на сайте

    Дорогой пользователь! Огромная просьба, поблагодарите релизера, оцените раздачу и оставьте свои комментарий, если Вы скачали Любовь в словах и картинках через торрент бесплатно! Внесите свою лепту в развитие PiratBit!
    Комментировать посты могут только пользователи прошедшие не сложную регистрацию
    Показать сообщения:    

    Любовь в словах и картинках через торрент
    Скачать бесплатно Любовь в словах и картинках
    Любовь в словах и картинках скачать торрент
    Любовь в словах и картинках смотреть онлайн
    Cкачать фильм Любовь в словах и картинках бесплатно
    Любовь в словах и картинках скачать торрент в хорошем качестве
    Любовь в словах и картинках смотреть онлайн бесплатно в хорошем качестве


    Вы не можете начинать темы
    Вы не можете отвечать на сообщения
    Вы не можете редактировать свои сообщения
    Вы не можете удалять свои сообщения
    Вы не можете голосовать в опросах
    Вы не можете прикреплять файлы к сообщениям
    Вы можете скачивать файлы