Всегда рабочее зеркало без VPN и Proxy просто перед .vidak.icu напиши любое слово или цифру, Пример http://3kbz.vidak.icu

Лицензия

MVO

1 сезон

1

1 сезон

iTunes

1 сезон

13

1 сезон

Deluxe

pack

Рекомендуем

Repack

30

ВАЖНО

RePack

MK11

RePack

jed

RePack

fifa19

RePack

RDR2

RePack

NEED FOR SPEED™ PAYBACK

Кинопоиск HD

6 сезон

 Острые козырьки 6 сезон

Все сериалы

все сериалы на PB.wtf

RePack

FAR CRY 5
  
Magnet ссылка

Когда животные видят сны / Когда звери мечтают / Nar dyrene drommer / When Animals Dream (Йонас Александр Арнби / Jonas Alexander Arnby) [2014, Дания, ужасы, драма, детектив, DVDRip] DVO pb.wtf

Когда животные видят сны через торрент pb.wtf

Размер: 1.38 GB | Добавлен: 7 лет 8 мес. назад | Торрент скачан:127 раз
Смотреть онлайн Когда животные видят сны | Скачать    Ребята, помогите собрать деньги на оплату серверов!!!

10-12-2014 02:07 Когда животные видят сны Скачать торрент  

Когда животные видят сны / Когда звери мечтают / Nar dyrene drommer / When Animals Dream


  • Год выпуска: 2014
  • Страна: Дания
  • Жанр: ужасы, драма, детектив
  • Продолжительность: 01:21:04
  • Перевод: Любительский (двухголосый)[Антон Агапов и Галина Васюкова] - перевод на русский язык [Станислав Бельков]

  • Режиссер: Йонас Александр Арнби / Jonas Alexander Arnby
  • В ролях:

    Sonia Suhl (Marie), Ларс Миккельсен (Thor), Соня Рихтер (Mor), Якоб Офтебро (Daniel), Mads Riisom (Felix), Густав Дюэкьер Гис (Esben), Esben Dalgaard (Bjarne), Стиг Хоффмайер (Dr. Larsen), Беньямин Бое Расмуссен (Ib), Тина Гюллинг Мортенсен

  • Описание:
    16-летняя Мари живет в рыбацкой деревушке с отцом и серьезно больной матерью. После череды внезапных смертей Мари понимает, что с ее телом происходит что-то странное.
  • Рейтинг:



  • Качество: DVDRip
  • Формат: :AVI
  • Видео кодек: XviD
  • Аудио кодек: AC3
  • Видео: 720x304 (2.35:1), 1974 kbps, 25 fps, 0,361 bpp
  • Аудио: 5.1 / 48 kHz / 448 kbps / 16 bit
  • Релиз от: GEKADOL

    Код:

    General
    Complete name                            : I:\When.Animals.Dream.2014.DVDRip.CINEMANIA.avi
    Format                                   : AVI
    Format/Info                              : Audio Video Interleave
    File size                                : 1.38 GiB
    Duration                                 : 1h 21mn
    Overall bit rate                         : 2 432 Kbps
    Writing application                      : VirtualDubMod 1.5.10.2 (build 2542/release)
    Writing library                          : VirtualDubMod build 2542/release

    Video
    ID                                       : 0
    Format                                   : MPEG-4 Visual
    Format profile                           : Advanced [email protected]
    Format settings, BVOP                    : 2
    Format settings, QPel                    : No
    Format settings, GMC                     : No warppoints
    Format settings, Matrix                  : Default (H.263)
    Codec ID                                 : XVID
    Codec ID/Hint                            : XviD
    Duration                                 : 1h 21mn
    Bit rate                                 : 1 974 Kbps
    Width                                    : 720 pixels
    Height                                   : 304 pixels
    Display aspect ratio                     : 2.35:1
    Frame rate                               : 25.000 fps
    Color space                              : YUV
    Chroma subsampling                       : 4:2:0
    Bit depth                                : 8 bits
    Scan type                                : Progressive
    Compression mode                         : Lossy
    Bits/(Pixel*Frame)                       : 0.361
    Stream size                              : 1.12 GiB (81%)
    Writing library                          : XviD 1.2.1 (UTC 2008-12-04)

    Audio
    ID                                       : 1
    Format                                   : AC-3
    Format/Info                              : Audio Coding 3
    Mode extension                           : CM (complete main)
    Codec ID                                 : 2000
    Duration                                 : 1h 21mn
    Bit rate mode                            : Constant
    Bit rate                                 : 448 Kbps
    Channel(s)                               : 6 channels
    Channel positions                        : Front: L C R, Side: L R, LFE
    Sampling rate                            : 48.0 KHz
    Bit depth                                : 16 bits
    Compression mode                         : Lossy
    Stream size                              : 260 MiB (18%)
    Alignment                                : Split accross interleaves
    Interleave, duration                     : 40 ms (1.00 video frame)
    Interleave, preload duration             : 500 ms


    Скриншоты:



    pb.wtf



  • Скачать Когда животные видят сны через торрент http://i68.fastpic.ru/big/2014/1210/82/09ff7be313a821177cb2234625dc3182.jpg Скачать, смотреть онлайн Когда животные видят сны бесплантно в хорошем качестве Описание: 16-летняя Мари живет в рыбацкой деревушке с отцом и серьезно больной матерью. После череды внезапных смертей Мари понимает, что с ... 10 10 5
    Торрент: Зарегистрирован [2014-12-10 02:08] · скачан: 127 раз
    Статус: T временная
    Размер: 1.38 GB
    Как cкачать? Как скачать Когда животные видят сны через торрент | UTorrent

    28-11-2019 20:33  

    Отключить вcю реклaмy на сайте

      Дорогой пользователь! Огромная просьба, поблагодарите релизера, оцените раздачу и оставьте свои комментарий, если Вы скачали Когда животные видят сны через торрент бесплатно!
      Комментировать посты могут только пользователи прошедшие не сложную регистрацию
      Показать сообщения:    

      Когда животные видят сны через торрент
      Скачать бесплатно Когда животные видят сны
      Когда животные видят сны скачать торрент
      Когда животные видят сны смотреть онлайн
      Cкачать фильм Когда животные видят сны бесплатно
      Когда животные видят сны скачать торрент в хорошем качестве
      Когда животные видят сны смотреть онлайн бесплатно в хорошем качестве


      Вы не можете начинать темы
      Вы не можете отвечать на сообщения
      Вы не можете редактировать свои сообщения
      Вы не можете удалять свои сообщения
      Вы не можете голосовать в опросах
      Вы не можете прикреплять файлы к сообщениям
      Вы можете скачивать файлы