2 сезон

iTunes

1 сезон

1

iTunes

iTunes

iTunes

1 сезон

RePack

30

ИГРА 18+

pack

ВАЖНО

!!Акция!!

Alien_RageХит недели

RePack

MK11
pack

Забери бонус

RePack

jed

!!Акция!!

Alien_Rage

RePack

fifa19

RePack

Assassins Creed: Odyssey

RePack

NEED FOR SPEED™ PAYBACK

4 сезон

9 сезон

Бесстыжие 9 сезон

Все сериалы

все сериалы на PB.wtf

RePack

FAR CRY 5
  

Мулен Руж / Moulin Rouge! (Баз Лурман / Baz Luhrmann) [2001 г., мюзикл, драма, мелодрама, BDRip 720p] [DUB, MVO, AVO, VO] pb.wtf

Мулен Руж через торрент pb.wtf

Размер: 17.3 GB | Добавлен: 5 лет 10 мес. назад | Торрент скачан:56 раз
Скачать  

10-12-2014 04:57 Мулен Руж Скачать торрент  

Мулен Руж / Moulin Rouge! (2001) BDRip«He entered in a world where fantasies are real»
Год выпуска: 2001
Производство: USA, Australia / Twentieth Century Fox Film Corporation, Bazmark Films
Жанр: мюзикл, драма, мелодрама
Длительность: 02:07:50
Перевод: профессиональный (полное дублирование), профессиональный (многоголосый закадровый), авторский (одноголосый закадровый), любительский
Вид субтитров: вшитые, отключаемые
Язык субтитров: русские (Full, Forsed), украинские (Full, Forsed), английские

Режиссер: Баз Лурман
Актеры: Николь Кидман, Юэн МакГрегор, Джон Легуизамо, Джим Бродбент, Ричард Роксбург, Гарри МакДональд, Яцек Коман, Мэттью Уиттэт, Керри Уолкер, Кэролайн О’Коннор

Описание фильма: Действие фильма разворачивается в 1899 году в знаменитом парижском ночном клубе. Мулен Руж — это не только дискотека и шикарный бордель, но и место, где, повинуясь неудержимому желанию прочувствовать атмосферу праздника, собираются страждущие приобщиться к красоте, свободе, любви и готовые платить за это… наличными.

Это место, где воедино сходятся трагедия и комедия, роскошные интерьеры начала столетия и современные музыкальные ритмы.

За любовь самой известной куртизанки Парижа, блистательной Сатин борются двое мужчин, один из которых — бедный писатель Кристиан, с головой окунувшийся в сумасшедший мир ночных развлечений, второй — богатый герцог, готовый купить весь Мулен Руж, лишь бы Сатин провела с ним ночь...

8 номинаций на премию «ОСКАР» включая Лучший фильм.
Победитель в категориях Лучшие декорации и Лучшие костюмы, 2002 г.



Рейтинг MPAA: PG-13 - Детям до 13 лет просмотр не желателен
Дата мировой премьеры: 9 мая 2001
Дата российской премьеры: 2 августа 2001, «Гемини Киномир»
Дата выхода DVD релиза: 10 августа 2006, «Двадцатый Век Фокс СНГ»
Дата выхода Blu-Ray релиза: 10 августа 2006, «Двадцатый Век Фокс СНГ»

Качество: BDRip (720p)
Формат: MKV
Видео кодек: AVC/H.264
Аудио кодек: DTS, AC3
Видео: MPEG-4 AVC/H.264, 1280 x 534 (2,40:1), 6 758 kbps, 23.976 fps, 0.412 b/px
Аудио # 1: DTS, 6 ch, 768 kbps, 48 000 Hz [дублированный (Blu-Ray CEE)]
Аудио # 2: АС3, 6 ch, 448 kbps, 48 000 Hz [многоголосый закадровый (Позитив-Мультимедиа)]
Аудио # 3: DTS, 6 ch, 1509 kbps, 48 000 Hz [многоголосый закадровый (Киномания)]
Аудио # 4: DTS, 6 ch, 1509 kbps, 48 000 Hz [многоголосый закадровый (Карусель 1)]
Аудио # 5: DTS, 6 ch, 1509 kbps, 48 000 Hz [многоголосый закадровый (Карусель 2)]
Аудио # 6: DTS, 6 ch, 1509 kbps, 48 000 Hz [одноголосый закадровый (С.Кузнецов)]
Аудио # 7: DTS, 6 ch, 1509 kbps, 48 000 Hz [одноголосый закадровый (Л.Володарский)]
Аудио # 8: DTS, 6 ch, 1509 kbps, 48 000 Hz [одноголосый закадровый (В.Рукин)]
Аудио # 9: АС3, 6 ch, 448 kbps, 48 000 Hz [многоголосый закадровый (Украинский)]
Аудио # 10: DTS, 6 ch, 1509 kbps, 48 000 Hz [оригинальный]

Код:

Общее
Уникальный идентификатор                 : 231696669302887382928216585248432455783 (0xAE4F27C4870AAB48AC862A9F90A80067)
Полное имя                               : E:\Video\[2010] Мулен Руж [BDRip] [720p].mkv
Формат                                   : Matroska
Версия формата                           : Version 4 / Version 2
Размер файла                             : 17,3 Гбайт
Продолжительность                        : 2 ч. 7 м.
Общий поток                              : 19,4 Мбит/сек
Название фильма                          : Мулен Руж / Moulin Rouge! (2001) BDRip [720p]
Дата кодирования                         : UTC 2014-11-23 18:53:55
Программа кодирования                    : mkvmerge v7.2.0 ('On Every Street') 32bit built on Sep 13 2014 15:42:11
Библиотека кодирования                   : libebml v1.3.0 + libmatroska v1.4.1
DURATION                                 : 02:06:19.362000000
NUMBER_OF_FRAMES                         : 1473
NUMBER_OF_BYTES                          : 43766
_STATISTICS_WRITING_APP                  : mkvmerge v7.2.0 ('On Every Street') 32bit built on Sep 13 2014 15:42:11
_STATISTICS_WRITING_DATE_UTC             : 2014-11-23 18:53:55
_STATISTICS_TAGS                         : BPS DURATION NUMBER_OF_FRAMES NUMBER_OF_BYTES

Видео
Идентификатор                            : 1
Формат                                   : AVC
Формат/Информация                        : Advanced Video Codec
Профиль формата                          : High@L4.1
Параметр CABAC формата                   : Да
Параметр ReFrames формата                : 12 кадров
Идентификатор кодека                     : V_MPEG4/ISO/AVC
Продолжительность                        : 2 ч. 7 м.
Битрейт                                  : 6758 Кбит/сек
Ширина                                   : 1280 пикселей
Высота                                   : 534 пикселя
Соотношение сторон                       : 2,40:1
Режим частоты кадров                     : Постоянный
Частота кадров                           : 23,976 кадра/сек
Цветовое пространство                    : YUV
Субдискретизация насыщенности            : 4:2:0
Битовая глубина                          : 8 бит
Тип развёртки                            : Прогрессивная
Бит/(Пиксели*Кадры)                      : 0.412
Размер потока                            : 6,03 Гбайт (35%)
Заголовок                                : [2010] Мулен Руж / Moulin Rouge! [BDRip] [720p]
Библиотека кодирования                   : x264 core 106 r1732 b20059a
Настройки программы                      : cabac=1 / ref=12 / deblock=1:-3:-3 / analyse=0x3:0x133 / me=umh / subme=10 / psy=1 / psy_rd=1.00:0.00 / mixed_ref=1 / me_range=32 / chroma_me=1 / trellis=2 / 8x8dct=1 / cqm=0 / deadzone=21,11 / fast_pskip=0 / chroma_qp_offset=-2 / threads=12 / sliced_threads=0 / nr=0 / decimate=0 / interlaced=0 / constrained_intra=0 / bframes=7 / b_pyramid=2 / b_adapt=2 / b_bias=0 / direct=1 / weightb=1 / open_gop=0 / weightp=2 / keyint=250 / keyint_min=23 / scenecut=40 / intra_refresh=0 / rc_lookahead=40 / rc=crf / mbtree=0 / crf=17.5 / qcomp=0.60 / qpmin=10 / qpmax=51 / qpstep=4 / vbv_maxrate=50000 / vbv_bufsize=62500 / crf_max=0.0 / ip_ratio=1.40 / pb_ratio=1.30 / aq=2:0.90 / nal_hrd=none
Язык                                     : English
Default                                  : Да
Forced                                   : Нет
DURATION                                 : 02:07:47.911000000
NUMBER_OF_FRAMES                         : 183846
NUMBER_OF_BYTES                          : 6842898855
_STATISTICS_WRITING_APP                  : mkvmerge v7.2.0 ('On Every Street') 32bit built on Sep 13 2014 15:42:11
_STATISTICS_WRITING_DATE_UTC             : 2014-11-23 18:53:55
_STATISTICS_TAGS                         : BPS DURATION NUMBER_OF_FRAMES NUMBER_OF_BYTES

Аудио #1
Идентификатор                            : 2
Формат                                   : DTS
Формат/Информация                        : Digital Theater Systems
Режим                                    : 16
Параметр Endianness формата              : Big
Идентификатор кодека                     : A_DTS
Продолжительность                        : 2 ч. 7 м.
Вид битрейта                             : Постоянный
Битрейт                                  : 768 Кбит/сек
Каналы                                   : 6 каналов
Расположение каналов                     : Front: L C R, Side: L R, LFE
Частота                                  : 48,0 КГц
Битовая глубина                          : 24 бит
Метод сжатия                             : С потерями
Размер потока                            : 702 Мбайт (4%)
Заголовок                                : Дублированный (Blu-Ray CEE)
Язык                                     : Russian
Default                                  : Да
Forced                                   : Нет

Аудио #2
Идентификатор                            : 3
Формат                                   : AC-3
Формат/Информация                        : Audio Coding 3
Расширение режима                        : CM (complete main)
Параметр Endianness формата              : Big
Идентификатор кодека                     : A_AC3
Продолжительность                        : 2 ч. 7 м.
Вид битрейта                             : Постоянный
Битрейт                                  : 448 Кбит/сек
Каналы                                   : 6 каналов
Расположение каналов                     : Front: L C R, Side: L R, LFE
Частота                                  : 48,0 КГц
Битовая глубина                          : 16 бит
Метод сжатия                             : С потерями
Размер потока                            : 410 Мбайт (2%)
Заголовок                                : Многоголосый закадровый (Позитив-Мультимедиа)
Язык                                     : Russian
Default                                  : Нет
Forced                                   : Нет

Аудио #3
Идентификатор                            : 4
Формат                                   : DTS
Формат/Информация                        : Digital Theater Systems
Режим                                    : 16
Параметр Endianness формата              : Big
Идентификатор кодека                     : A_DTS
Продолжительность                        : 2 ч. 7 м.
Вид битрейта                             : Постоянный
Битрейт                                  : 1509 Кбит/сек
Каналы                                   : 6 каналов
Расположение каналов                     : Front: L C R, Side: L R, LFE
Частота                                  : 48,0 КГц
Битовая глубина                          : 24 бит
Метод сжатия                             : С потерями
Размер потока                            : 1,35 Гбайт (8%)
Заголовок                                : Многоголосый закадровый (Киномания)
Язык                                     : Russian
Default                                  : Нет
Forced                                   : Нет

Аудио #4
Идентификатор                            : 5
Формат                                   : DTS
Формат/Информация                        : Digital Theater Systems
Режим                                    : 16
Параметр Endianness формата              : Big
Идентификатор кодека                     : A_DTS
Продолжительность                        : 2 ч. 7 м.
Вид битрейта                             : Постоянный
Битрейт                                  : 1509 Кбит/сек
Каналы                                   : 6 каналов
Расположение каналов                     : Front: L C R, Side: L R, LFE
Частота                                  : 48,0 КГц
Битовая глубина                          : 24 бит
Метод сжатия                             : С потерями
Размер потока                            : 1,35 Гбайт (8%)
Заголовок                                : Многоголосый закадровый (Карусель 1)
Язык                                     : Russian
Default                                  : Нет
Forced                                   : Нет

Аудио #5
Идентификатор                            : 6
Формат                                   : DTS
Формат/Информация                        : Digital Theater Systems
Режим                                    : 16
Параметр Endianness формата              : Big
Идентификатор кодека                     : A_DTS
Продолжительность                        : 2 ч. 7 м.
Вид битрейта                             : Постоянный
Битрейт                                  : 1509 Кбит/сек
Каналы                                   : 6 каналов
Расположение каналов                     : Front: L C R, Side: L R, LFE
Частота                                  : 48,0 КГц
Битовая глубина                          : 24 бит
Метод сжатия                             : С потерями
Размер потока                            : 1,35 Гбайт (8%)
Заголовок                                : Многоголосый закадровый (Карусель 2)
Язык                                     : Russian
Default                                  : Нет
Forced                                   : Нет

Аудио #6
Идентификатор                            : 7
Формат                                   : DTS
Формат/Информация                        : Digital Theater Systems
Режим                                    : 16
Параметр Endianness формата              : Big
Идентификатор кодека                     : A_DTS
Продолжительность                        : 2 ч. 7 м.
Вид битрейта                             : Постоянный
Битрейт                                  : 1509 Кбит/сек
Каналы                                   : 6 каналов
Расположение каналов                     : Front: L C R, Side: L R, LFE
Частота                                  : 48,0 КГц
Битовая глубина                          : 24 бит
Метод сжатия                             : С потерями
Размер потока                            : 1,35 Гбайт (8%)
Заголовок                                : Одноголосый закадровый (С.Кузнецов)
Язык                                     : Russian
Default                                  : Нет
Forced                                   : Нет

Аудио #7
Идентификатор                            : 8
Формат                                   : DTS
Формат/Информация                        : Digital Theater Systems
Режим                                    : 16
Параметр Endianness формата              : Big
Идентификатор кодека                     : A_DTS
Продолжительность                        : 2 ч. 7 м.
Вид битрейта                             : Постоянный
Битрейт                                  : 1509 Кбит/сек
Каналы                                   : 6 каналов
Расположение каналов                     : Front: L C R, Side: L R, LFE
Частота                                  : 48,0 КГц
Битовая глубина                          : 24 бит
Метод сжатия                             : С потерями
Размер потока                            : 1,35 Гбайт (8%)
Заголовок                                : Одноголосый закадровый (Л.Володарский)
Язык                                     : Russian
Default                                  : Нет
Forced                                   : Нет

Аудио #8
Идентификатор                            : 9
Формат                                   : DTS
Формат/Информация                        : Digital Theater Systems
Режим                                    : 16
Параметр Endianness формата              : Big
Идентификатор кодека                     : A_DTS
Продолжительность                        : 2 ч. 7 м.
Вид битрейта                             : Постоянный
Битрейт                                  : 1509 Кбит/сек
Каналы                                   : 6 каналов
Расположение каналов                     : Front: L C R, Side: L R, LFE
Частота                                  : 48,0 КГц
Битовая глубина                          : 24 бит
Метод сжатия                             : С потерями
Размер потока                            : 1,35 Гбайт (8%)
Заголовок                                : Одноголосый закадровый (В.Рукин)
Язык                                     : Russian
Default                                  : Нет
Forced                                   : Нет

Аудио #9
Идентификатор                            : 10
Формат                                   : AC-3
Формат/Информация                        : Audio Coding 3
Расширение режима                        : CM (complete main)
Параметр Endianness формата              : Big
Идентификатор кодека                     : A_AC3
Продолжительность                        : 2 ч. 7 м.
Вид битрейта                             : Постоянный
Битрейт                                  : 448 Кбит/сек
Каналы                                   : 6 каналов
Расположение каналов                     : Front: L C R, Side: L R, LFE
Частота                                  : 48,0 КГц
Битовая глубина                          : 16 бит
Метод сжатия                             : С потерями
Размер потока                            : 410 Мбайт (2%)
Заголовок                                : Многоголосый закадровый
Язык                                     : Ukrainian
Default                                  : Нет
Forced                                   : Нет

Аудио #10
Идентификатор                            : 11
Формат                                   : DTS
Формат/Информация                        : Digital Theater Systems
Режим                                    : 16
Параметр Endianness формата              : Big
Идентификатор кодека                     : A_DTS
Продолжительность                        : 2 ч. 7 м.
Вид битрейта                             : Постоянный
Битрейт                                  : 1509 Кбит/сек
Каналы                                   : 6 каналов
Расположение каналов                     : Front: L C R, Side: L R, LFE
Частота                                  : 48,0 КГц
Битовая глубина                          : 24 бит
Метод сжатия                             : С потерями
Размер потока                            : 1,35 Гбайт (8%)
Заголовок                                : Одноголосый
Язык                                     : English
Default                                  : Нет
Forced                                   : Нет

Текст #1
Идентификатор                            : 12
Формат                                   : UTF-8
Идентификатор кодека                     : S_TEXT/UTF8
Идентификатор кодека/Информация          : UTF-8 Plain Text
Заголовок                                : Russian (Full)
Язык                                     : Russian
Default                                  : Нет
Forced                                   : Нет

Текст #2
Идентификатор                            : 13
Формат                                   : UTF-8
Идентификатор кодека                     : S_TEXT/UTF8
Идентификатор кодека/Информация          : UTF-8 Plain Text
Заголовок                                : Russian (Forced)
Язык                                     : Russian
Default                                  : Да
Forced                                   : Нет

Текст #3
Идентификатор                            : 14
Формат                                   : UTF-8
Идентификатор кодека                     : S_TEXT/UTF8
Идентификатор кодека/Информация          : UTF-8 Plain Text
Заголовок                                : Ukrainian (Full)
Язык                                     : Ukrainian
Default                                  : Нет
Forced                                   : Нет

Текст #4
Идентификатор                            : 15
Формат                                   : UTF-8
Идентификатор кодека                     : S_TEXT/UTF8
Идентификатор кодека/Информация          : UTF-8 Plain Text
Заголовок                                : Ukrainian (Forced)
Язык                                     : Ukrainian
Default                                  : Нет
Forced                                   : Нет

Текст #5
Идентификатор                            : 16
Формат                                   : UTF-8
Идентификатор кодека                     : S_TEXT/UTF8
Идентификатор кодека/Информация          : UTF-8 Plain Text
Заголовок                                : English
Язык                                     : English
Default                                  : Нет
Forced                                   : Нет

Меню
00:00:00.000                             : en:00:00:00.000
00:01:19.079                             : en:00:01:19.079
00:05:32.666                             : en:00:05:32.666
00:10:47.355                             : en:00:10:47.355
00:13:05.785                             : en:00:13:05.785
00:14:12.143                             : en:00:14:12.143
00:21:02.511                             : en:00:21:02.511
00:25:07.756                             : en:00:25:07.756
00:27:36.029                             : en:00:27:36.029
00:31:24.633                             : en:00:31:24.633
00:35:46.478                             : en:00:35:46.478
00:40:06.571                             : en:00:40:06.571
00:44:31.919                             : en:00:44:31.919
00:48:46.382                             : en:00:48:46.382
00:53:28.789                             : en:00:53:28.789
00:55:08.013                             : en:00:55:08.013
00:57:44.044                             : en:00:57:44.044
00:59:36.281                             : en:00:59:36.281
01:01:25.765                             : en:01:01:25.765
01:05:43.606                             : en:01:05:43.606
01:08:01.577                             : en:01:08:01.577
01:12:44.277                             : en:01:12:44.277
01:18:08.726                             : en:01:18:08.726
01:25:32.586                             : en:01:25:32.586
01:27:09.182                             : en:01:27:09.182
01:29:50.010                             : en:01:29:50.010
01:32:02.475                             : en:01:32:02.475
01:34:57.150                             : en:01:34:57.150
01:36:20.775                             : en:01:36:20.775
01:38:50.341                             : en:01:38:50.341
01:42:24.597                             : en:01:42:24.597
01:47:45.459                             : en:01:47:45.459
01:51:32.895                             : en:01:51:32.895
01:53:21.294                             : en:01:53:21.294
01:58:41.156                             : en:01:58:41.156
02:00:24.050                             : en:02:00:24.050

Оскар, 2002 год

Победитель (2):

*** Лучшие декорации
*** Лучшие костюмы

Номинации (6):

*** Лучший фильм
*** Лучшая женская роль (Николь Кидман)
*** Лучшая работа оператора
*** Лучший звук
*** Лучший монтаж
*** Лучший грим

Золотой глобус, 2002 год

Победитель (3):

*** Лучший фильм (комедия или мюзикл)
*** Лучшая женская роль (комедия или мюзикл) (Николь Кидман)
*** Лучший саундтрек

Номинации (3):

*** Лучшая мужская роль (комедия или мюзикл) (Юэн МакГрегор)
*** Лучший режиссер (Баз Лурман)
*** Лучшая песня — «Come What May»

Премия канала «MTV», 2002 год

Победитель (2):

*** Лучшая женская роль (Николь Кидман)
*** Лучшая музыкальная сцена (Николь Кидман, Юэн МакГрегор)

Номинации (3):

*** Лучшая эпизодическая роль (Кайли Миноуг)
*** Лучшая музыкальная сцена (Николь Кидман)
*** Лучший поцелуй (Николь Кидман, Юэн МакГрегор)

Британская академия, 2002 год

Победитель (3):

*** Лучшая мужская роль второго плана (Джим Бродбент)
*** Лучший звук
*** Премия имени Энтони Эскуита за достижения в создании музыки к фильму

Номинации (9):

*** Лучший фильм
*** Лучший оригинальный сценарий
*** Лучшая работа оператора
*** Лучшие костюмы
*** Лучший монтаж
*** Лучшие визуальные эффекты
*** Лучший грим/прически
*** Лучшая работа художника-постановщика
*** Премия имени Дэвида Лина за достижения в режиссуре (Баз Лурман)

Сезар, 2002 год

Номинации (1):

*** Лучший фильм на иностранном языке

Сатурн, 2002 год

Номинации (2):

*** Лучшие костюмы
*** Лучшее специальное DVD-издание

Премия Гильдии актеров, 2002 год

Номинации (1):

*** Лучший актерский состав

Каннский кинофестиваль, 2001 год

Номинации (1):

*** Золотая пальмовая ветвь

Европейская киноакадемия, 2001 год

Победитель (2):

*** Приз Screen International Award
*** Приз за выдающиеся достижения в мировом кино (Юэн МакГрегор)
*** Николь Кидман носила во время сьёмок самое дорогое ожерелье за всю историю кинематографа — его цена составила миллион американских долларов.

*** В ноябре 1999 пришлось приостановить съёмки, так как Николь Кидман сломала ребро и повредила колено. Ряд сцен был снят с участием неподвижных крупных планов Кидман, сидящей в кресле-коляске.

*** Первоначально главные роли должны были сыграть Хит Леджер и Кэтрин Зета-Джонс.

*** Над изготовлением 300 костюмов работали 80 костюмеров.

*** Сюжет фильма развивается из сюжетных линий трёх опер: «Ла Травиата», «Богема» и «Орфей и Евридика». Также прослеживается некоторая схожесть с опереттой Жака Оффенбаха «Парижская жизнь».

*** «Come what may» была написана для другого фильма База Лурмана «Ромео + Джульетта» (1996).

*** Слово «любовь» и его вариации (любил, люблю, любимая, любимый, любовники и др.) появляются в фильме 143 раза.

*** Джон Легуизамо сыграл реального персонажа — постимпрессиониста Тулуза-Лотрека. Его отец и мать были родственниками, вследствие этого его ноги перестали расти в молодости. Он черпал вдохновение в куртизанках и любил их рисовать.

*** Юэн МакГрегор и Николь Кидман сами исполнили все свои вокальные партии.

*** Фильм посвящён отцу База Лурмана, Леонарду Лурману, который умер перед самым началом съёмок.
Скриншоты:
Время раздачи: 24/7 до 5-ти скачавших, затем по мере возможностиpb.wtf



Скачать Мулен Руж через торрент http://i5.imageban.ru/out/2014/11/23/c6944e10a354c15a9068a124945319eb.png Скачать фильм Мулен Руж через торрент бесплантно в хорошем качестве Описание фильма: Действие фильма разворачивается в 1899 году в знаменитом парижском ночном клубе. Мулен Руж — это не только дискотека и ... 10 10 3
Торрент: Зарегистрирован [2014-12-10 04:57] · скачан: 56 раз
Статус: √ проверено
Размер: 17.3 GB
Как cкачать? Как скачать Мулен Руж через торрент | qTorrent

% Раздел Тема Автор DL S | L
Фильмы 2001-2005 [ 2.18 GB ] Мулен Руж / Moulin Rouge! [2001 Мюзикл Мело BDRip] Trust Скачать
1 | 0
Фильмы (DVD фильмы) [ 7.7 GB ] Мулен Руж / Moulin Rouge [2001 мьюзикл DVD9] Веснушка Скачать
1 | 0

28-11-2019 20:33  

Отключить всю рекламу на сайте

    Дорогой пользователь! Огромная просьба, поблагодарите релизера, оцените раздачу и оставьте свои комментарий, если Вы скачали Мулен Руж через торрент бесплатно! Внесите свою лепту в развитие PiratBit!
    Комментировать посты могут только пользователи прошедшие не сложную регистрацию
    Показать сообщения:    

    Мулен Руж через торрент
    Скачать бесплатно Мулен Руж
    Мулен Руж скачать торрент
    Мулен Руж смотреть онлайн
    Cкачать фильм Мулен Руж бесплатно
    Мулен Руж скачать торрент в хорошем качестве
    Мулен Руж смотреть онлайн бесплатно в хорошем качестве


    Вы не можете начинать темы
    Вы не можете отвечать на сообщения
    Вы не можете редактировать свои сообщения
    Вы не можете удалять свои сообщения
    Вы не можете голосовать в опросах
    Вы не можете прикреплять файлы к сообщениям
    Вы можете скачивать файлы