новый адрес пиратбит piratbit
Мега распродажа FORZA HORIZON 4 ULTIMATE+ВСЕ DLC+ОНЛАЙН всего за 499р. 349 руб. (супер цена). Внимание количество ограничено!!!

iTunes

1+1

iTunes

мы

iTunes

1

iTunes

Чернобыль

iTunes

Ральф против интернета

Лицензия

ПШазам

Лицензия

Игра престолов

Лицензия

30
pack

ВАЖНО

!!Акция!!

Alien_RageХит недели

RePack

Resident Evil 21

ИГРА 18+

pack

RePack

Metro:Exodus

!!Акция!!

Alien_Rage

RePack

fifa19

RePack

Assassins Creed: Odyssey

RePack

NEED FOR SPEED™ PAYBACK

3 сезон

9 сезон

Бесстыжие 9 сезон

Все сериалы

все сериалы на PB.wtf

RePack

FAR CRY 5
Ребята, катастрофически не хватает 1900р. для оплаты серверов за Октябрь (всвязи с блокировками трафик упал в 3 раза), 1-2р., выручайте.
  

Вестсайдская история / West Side Story (Джером Роббинс, Роберт Уайз) [1961, мюзикл, триллер, драма, мелодрама, криминал, BDRip 1080p] 3 x MVO pb.wtf

Вестсайдская история через торрент pb.wtf

Размер: 21.55 GB | Добавлен: 4 года 11 мес. назад | Торрент скачан:2 раза
Скачать  

10-12-2014 06:37 Вестсайдская история Скачать торрент  

Вестсайдская история / West Side Story

Год выпуска: 1961
Страна: США
Жанр: мюзикл, триллер, драма, мелодрама, криминал
Продолжительность: 02:33:43
Перевод: профессиональный многоголосый
Субтитры: русские, английские (все отдельно)

Режиссёр: Джером Роббинс, Роберт Уайз

В ролях: Натали Вуд, Ричард Беймер, Расс Тэмблин, Рита Морено, Джордж Чакирис, Саймон Оукленд, Нед Глэсс, Уильям Брэмли, Такер Смит, Тони Морденте, Дэвид Уинтерс, Харви Эванс, Томми Эбботт

Описание: Сюжет построен на бессмертной истории Ромео и Джульетты, развёрнутой на новый лад. На улицах Манхэттена ведут беспощадную войну за жизненное пространство две уличных банды - Джеты и Акулы. Тони — член банды Джетов и лучший друг главаря Риффа. Смуглянка Мария — сестра предводителя пуэрториканцев Акул. Тони и Мария влюбляются друг в друга вопреки ненависти друзей и родственников, и их любовь заканчивается трагически…



Качество: BDRip 1080p Сравнение с исходником
Формат: MKV
Видео кодек: H.264
Аудио кодек: AC3, DTS
Видео: 1920x876, 14.8 Mbps, 23.976 кадра/с, 0.368 bpp
Аудио 1: русский, DTS, 768 kbps, 6 ch, 48 kHz [профессиональный многоголосый, BD EUR]
Аудио 2: русский, DTS, 1509 kbps, 6 ch, 48 kHz [профессиональный многоголосый, DVD Магия]
Аудио 3: русский, AC3, 192 kbps, 2 ch, 48 kHz [профессиональный многоголосый, HTB+]

Отдельные файлы
Аудио: русский, AC3, 448 kbps, 6 ch, 48 kHz [профессиональный многоголосый, DVD Магия]
Аудио: русский, AC3, 448 kbps, 6 ch, 48 kHz [профессиональный многоголосый, BD EUR]
Аудио: английский, DTS, 1509 kbps, 6 ch, 48 kHz [оригинал]

Имеются неименованные главы/чаптеры.

Автор рипа msltel
Почётный «Оскар» Джерому Роббинсу за достижения в хореографии, «Грэмми» за запись музыки к фильму (Сол Чаплин, Джонни Грин, Эрвин Костал и Сид Рэмин); в 1997 году лента включена в Национальный регистр фильмов

Британская академия, 1963 год
Номинации (1):
Лучший фильм

Оскар, 1962 год
Победитель (10):
Лучший фильм
Лучшая мужская роль второго плана (Джордж Чакирис)
Лучшая женская роль второго плана (Рита Морено)
Лучший режиссер (Джером Роббинс, Роберт Уайз)
Лучшая работа оператора (цветные фильмы)
Лучшая работа художника (цветные фильмы)
Лучшая работа художника по костюмам (цветные фильмы)
Лучший звук
Лучший монтаж
Лучший саундтрек для музыкальных картин

Номинации (1):
Лучший адаптированный сценарий

Золотой глобус, 1962 год
Победитель (3):
Лучший фильм (мюзикл)
Лучшая мужская роль второго плана (Джордж Чакирис)
Лучшая женская роль второго плана (Рита Морено)

Номинации (2):
Лучший режиссер (Джером Роббинс, Роберт Уайз)
Лучшая мужская роль (комедия или мюзикл) (Ричард Беймер)
Общее
Уникальный идентификатор : 196581921494661641149687759199828579504 (0x93E44D08A55569FD8C05C926AD9E14B0)
Полное имя : D:VideoVestsajdskaja istorija.1961.BDRip.1080pVestsajdskaja istorija.1961.BDRip.1080p.mkv
Формат : Matroska
Версия формата : Version 4 / Version 2
Размер файла : 19,0 Гбайт
Продолжительность : 2 ч. 33 м.
Общий поток : 17,7 Мбит/сек
Дата кодирования : UTC 2014-12-09 14:44:15
Программа кодирования : mkvmerge v7.3.0 ('Nouages') 64bit built on Oct 22 2014 18:53:34
Библиотека кодирования : libebml v1.3.0 + libmatroska v1.4.1
_STATISTICS_WRITING_APP : mkvmerge v7.3.0 ('Nouages') 64bit built on Oct 22 2014 18:53:34
_STATISTICS_WRITING_DATE_UTC : 2014-12-09 14:44:15
_STATISTICS_TAGS : BPS DURATION NUMBER_OF_FRAMES NUMBER_OF_BYTES
DURATION : 02:33:43.275000000
NUMBER_OF_FRAMES : 864682
NUMBER_OF_BYTES : 1739740300

Видео
Идентификатор : 1
Формат : AVC
Формат/Информация : Advanced Video Codec
Профиль формата : High@L4.1
Параметр CABAC формата : Да
Параметр ReFrames формата : 4 кадра
Идентификатор кодека : V_MPEG4/ISO/AVC
Продолжительность : 2 ч. 33 м.
Битрейт : 14,8 Мбит/сек
Ширина : 1920 пикселей
Высота : 876 пикселей
Соотношение сторон : 2,2:1
Режим частоты кадров : Постоянный
Частота кадров : 23,976 кадра/сек
Цветовое пространство : YUV
Субдискретизация насыщенности : 4:2:0
Битовая глубина : 8 бит
Тип развёртки : Прогрессивная
Бит/(Пиксели*Кадры) : 0.368
Размер потока : 15,9 Гбайт (84%)
Заголовок : BDRip -- STarankov
Библиотека кодирования : x264 core 142 r2431 ac76440
Настройки программы : cabac=1 / ref=4 / deblock=1:-1:-1 / analyse=0x3:0x113 / me=umh / subme=10 / psy=1 / psy_rd=1.00:0.15 / mixed_ref=1 / me_range=32 / chroma_me=1 / trellis=2 / 8x8dct=1 / cqm=0 / deadzone=21,11 / fast_pskip=1 / chroma_qp_offset=-3 / threads=6 / lookahead_threads=1 / sliced_threads=0 / nr=0 / decimate=1 / interlaced=0 / bluray_compat=0 / constrained_intra=0 / bframes=8 / b_pyramid=2 / b_adapt=2 / b_bias=0 / direct=3 / weightb=1 / open_gop=0 / weightp=2 / keyint=230 / keyint_min=23 / scenecut=40 / intra_refresh=0 / rc_lookahead=40 / rc=crf / mbtree=0 / crf=18.1 / qcomp=0.60 / qpmin=0 / qpmax=69 / qpstep=4 / vbv_maxrate=50000 / vbv_bufsize=62500 / crf_max=0.0 / nal_hrd=none / filler=0 / ip_ratio=1.40 / pb_ratio=1.30 / aq=1:1.00
Язык : English
Default : Да
Forced : Нет
DURATION : 02:33:43.214000000
NUMBER_OF_FRAMES : 221136
NUMBER_OF_BYTES : 17514312381
_STATISTICS_WRITING_APP : mkvmerge v7.3.0 ('Nouages') 64bit built on Oct 22 2014 18:53:34
_STATISTICS_WRITING_DATE_UTC : 2014-12-09 14:44:15
_STATISTICS_TAGS : BPS DURATION NUMBER_OF_FRAMES NUMBER_OF_BYTES

Аудио #1
Идентификатор : 2
Формат : DTS
Формат/Информация : Digital Theater Systems
Режим : 16
Параметр Endianness формата : Big
Идентификатор кодека : A_DTS
Продолжительность : 2 ч. 33 м.
Вид битрейта : Постоянный
Битрейт : 768 Кбит/сек
Каналы : 6 каналов
Расположение каналов : Front: L C R, Side: L R, LFE
Частота : 48,0 КГц
Битовая глубина : 24 бит
Метод сжатия : С потерями
Размер потока : 844 Мбайт (4%)
Заголовок : MVO (BD EUR)
Язык : Russian
Default : Да
Forced : Нет

Аудио #2
Идентификатор : 3
Формат : DTS
Формат/Информация : Digital Theater Systems
Режим : 16
Параметр Endianness формата : Big
Идентификатор кодека : A_DTS
Продолжительность : 2 ч. 33 м.
Вид битрейта : Постоянный
Битрейт : 1509 Кбит/сек
Каналы : 6 каналов
Расположение каналов : Front: L C R, Side: L R, LFE
Частота : 48,0 КГц
Битовая глубина : 24 бит
Метод сжатия : С потерями
Размер потока : 1,62 Гбайт (9%)
Заголовок : MVO (DVD Магия)
Язык : Russian
Default : Нет
Forced : Нет

Аудио #3
Идентификатор : 4
Формат : AC-3
Формат/Информация : Audio Coding 3
Расширение режима : CM (complete main)
Параметр Endianness формата : Big
Идентификатор кодека : A_AC3
Продолжительность : 2 ч. 33 м.
Вид битрейта : Постоянный
Битрейт : 192 Кбит/сек
Каналы : 2 канала
Расположение каналов : Front: L R
Частота : 48,0 КГц
Битовая глубина : 16 бит
Метод сжатия : С потерями
Размер потока : 211 Мбайт (1%)
Заголовок : MVO (HTB+)
Язык : Russian
Default : Нет
Forced : Нет

Меню
00:00:00.000 : :Chapter 01
00:05:02.052 : :Chapter 02
00:14:54.101 : :Chapter 03
00:17:41.102 : :Chapter 04
00:23:02.589 : :Chapter 05
00:28:50.770 : :Chapter 06
00:31:47.321 : :Chapter 07
00:39:07.804 : :Chapter 08
00:42:53.070 : :Chapter 09
00:44:16.070 : :Chapter 10
00:46:56.981 : :Chapter 11
00:54:27.972 : :Chapter 12
00:56:01.608 : :Chapter 13
01:03:03.570 : :Chapter 14
01:10:29.225 : :Chapter 15
01:15:20.224 : :Chapter 16
01:22:54.552 : :Chapter 17
01:26:27.680 : :Chapter 18
01:29:12.972 : :Chapter 19
01:34:57.233 : :Chapter 20
01:38:16.849 : :Chapter 21
01:46:30.592 : :Chapter 22
01:49:32.399 : :Chapter 23
01:53:11.158 : :Chapter 24
01:55:08.527 : :Chapter 25
02:02:40.936 : :Chapter 26
02:04:38.261 : :Chapter 27
02:11:22.416 : :Chapter 28
02:13:12.734 : :Chapter 29
02:18:04.275 : :Chapter 30
02:20:09.066 : :Chapter 31
02:28:34.697 : :Chapter 32

Общее
Полное имя : D:VideoVestsajdskaja istorija.1961.BDRip.1080pVestsajdskaja istorija.1961.eng.srt
Размер файла : 248 Кбайт

Общее
Полное имя : D:VideoVestsajdskaja istorija.1961.BDRip.1080pVestsajdskaja istorija.1961.MVO.rus.BD EUR.ac3
Формат : AC-3
Формат/Информация : Audio Coding 3
Размер файла : 493 Мбайт
Продолжительность : 2 ч. 33 м.
Режим общего битрейта : Постоянный
Общий поток : 448 Кбит/сек

Аудио
Формат : AC-3
Формат/Информация : Audio Coding 3
Расширение режима : CM (complete main)
Параметр Endianness формата : Big
Продолжительность : 2 ч. 33 м.
Вид битрейта : Постоянный
Битрейт : 448 Кбит/сек
Каналы : 6 каналов
Расположение каналов : Front: L C R, Side: L R, LFE
Частота : 48,0 КГц
Битовая глубина : 16 бит
Метод сжатия : С потерями
Размер потока : 493 Мбайт (100%)

Общее
Полное имя : D:VideoVestsajdskaja istorija.1961.BDRip.1080pVestsajdskaja istorija.1961.MVO.rus.DVD Магия.ac3
Формат : AC-3
Формат/Информация : Audio Coding 3
Размер файла : 493 Мбайт
Продолжительность : 2 ч. 33 м.
Режим общего битрейта : Постоянный
Общий поток : 448 Кбит/сек

Аудио
Формат : AC-3
Формат/Информация : Audio Coding 3
Расширение режима : CM (complete main)
Параметр Endianness формата : Big
Продолжительность : 2 ч. 33 м.
Вид битрейта : Постоянный
Битрейт : 448 Кбит/сек
Каналы : 6 каналов
Расположение каналов : Front: L C R, Side: L R, LFE
Частота : 48,0 КГц
Битовая глубина : 16 бит
Метод сжатия : С потерями
Размер потока : 493 Мбайт (100%)

Общее
Полное имя : D:VideoVestsajdskaja istorija.1961.BDRip.1080pVestsajdskaja istorija.1961.Original.eng.dts
Формат : DTS
Формат/Информация : Digital Theater Systems
Размер файла : 1,62 Гбайт
Продолжительность : 2 ч. 33 м.
Режим общего битрейта : Постоянный
Общий поток : 1509 Кбит/сек

Аудио
Формат : DTS
Формат/Информация : Digital Theater Systems
Режим : 16
Параметр Endianness формата : Big
Продолжительность : 2 ч. 33 м.
Вид битрейта : Постоянный
Битрейт : 1509 Кбит/сек
Каналы : 6 каналов
Расположение каналов : Front: L C R, Side: L R, LFE
Частота : 48,0 КГц
Битовая глубина : 24 бит
Метод сжатия : С потерями
Размер потока : 1,62 Гбайт (100%)

Общее
Полное имя : D:VideoVestsajdskaja istorija.1961.BDRip.1080pVestsajdskaja istorija.1961.rus.srt
Размер файла : 241 Кбайт
pb.wtf



Скачать Вестсайдская история через торрент http://i66.fastpic.ru/big/2014/1210/b1/a224efba42fb178b1f2d9bc12d535eb1.jpg Скачать фильм Вестсайдская история через торрент бесплантно в хорошем качестве Описание: Сюжет построен на бессмертной истории Ромео и Джульетты, развёрнутой на новый лад. На улицах Манхэттена ведут беспощадную войну ... 7.5 10 2
Info! Золотая раздача, скачанное не засчитывается.
Торрент: Зарегистрирован [2014-12-10 06:37] · скачан: 2 раз
Статус: √ проверено
Размер: 21.55 GB
Как cкачать? Как скачать Вестсайдская история через торрент | qTorrent

% Раздел Тема Автор DL S | L
Фильмы [HD 720p, 1080p] (Хороший звук DUB, MVO) [ 10.92 GB ] Вестсайдская история / West Side Story [1961 мюзикл BDRip 720p] 3 x MVO msltel Скачать
1 | 0


>> Регистрируемся здесь <<






Отзывы и комментарии о схеме читаем и пишем здесь: ---> Отзывы и комментарии о схеме

Новые благодарочки в телеграм довольных пользователей:
скриншот   скриншот   скриншот   скриншот   скриншот
    Дорогой пользователь! Огромная просьба, поблагодарите релизера, оцените раздачу и оставьте свои комментарий, если Вы скачали Вестсайдская история через торрент бесплатно! Внесите свою лепту в развитие PiratBit!
    Комментировать посты могут только пользователи прошедшие не сложную регистрацию
    Показать сообщения:    

    Вестсайдская история через торрент
    Скачать бесплатно Вестсайдская история
    Вестсайдская история скачать торрент
    Вестсайдская история смотреть онлайн
    Cкачать фильм Вестсайдская история бесплатно
    Вестсайдская история скачать торрент в хорошем качестве
    Вестсайдская история смотреть онлайн бесплатно в хорошем качестве


    Вы не можете начинать темы
    Вы не можете отвечать на сообщения
    Вы не можете редактировать свои сообщения
    Вы не можете удалять свои сообщения
    Вы не можете голосовать в опросах
    Вы не можете прикреплять файлы к сообщениям
    Вы можете скачивать файлы