2 сезон

iTunes

1 сезон

1

iTunes

iTunes

iTunes

1 сезон

RePack

30

ИГРА 18+

pack

ВАЖНО

!!Акция!!

Alien_RageХит недели

RePack

MK11
pack

Забери бонус

RePack

jed

!!Акция!!

Alien_Rage

RePack

fifa19

RePack

Assassins Creed: Odyssey

RePack

NEED FOR SPEED™ PAYBACK

4 сезон

9 сезон

Бесстыжие 9 сезон

Все сериалы

все сериалы на PB.wtf

RePack

FAR CRY 5
  

Позывной "Стая" (2 сезон: 1-12 серия из 12) (Андрей Щербинин) [2014 г., Боевик, DVB] Оригинал pb.wtf

Позывной "Стая" через торрент pb.wtf

Размер: 18.41 GB | Добавлен: 5 лет 10 мес. назад | Торрент скачан:365 раз
Скачать  

10-12-2014 14:54 Позывной "Стая" Скачать торрент  

Позывной "Стая" (2 сезон)
Год выпуска: 2014
Страна: Россия
Жанр: Боевик
Продолжительность: 12 x ~ 00:47:00
Перевод: Оригинал
Субтитры: нет

Режиссер: Андрей Щербинин

В ролях: Евгений Сидихин, Сергей Воробьёв (IV), Геннадий Казачков, Александр Эрлих, Петр Логачев, Полина Сидихина, Анна Королева (II), Алексей Величко, Юлия Горшенина, Самвел Мужикян, Иван Патраман

Описание: Будучи в отставке, члены частного боевого отряда исполняют заказы в разных странах. Имея покровителя в российских спецслужбах, «Стая» зачастую берется за деликатные поручения за пределами своей страны в интересах правительства — в случаях, когда официальными путями государство действовать не может. Непобедимой команде предстоит бросить вызов спецслужбам Англии, Америки и Румынии, затеять смертельную игру с Массадом, отбить миллиард долларов у международной преступной группировки и даже сняться в кино в далекой африканской стране.

Качество: DVB
Формат: MPEG
Видео кодек: MPEG2
Аудио кодек: MP3
Видео: MPEG-2, (768x576),4014 Кбит/с, 25.000 кадра/сек
Аудио#1: MP 2, 2 ch,192 kbps (Rus) 48.0 KHzОригинал
скриншот   скриншот   скриншот  

Тип потока: Видео
Длительность: 01:34:47
Кодек: MPEG Video
Кодек/профиль: Main@Main
Кодек/версия: Version 2
Размеры изображения: 768 x 576 (4:3)
Частота кадров: 25.000 fps
Размер потока: 2.66 GiB (94%)
Битрейт: 4 014 Kbps
Битрейт/макс: 15.0 Mbps
Битрейт/тип: VBR
Метод сжатия: Lossy
Стандарт: PAL
Цветовое пространство: YUV
Колориметрия: 4:2:0
Глубина: 8 bits
:
Тип потока: Звук #1
Длительность: 01:34:47.064
Кодек: MPEG Audio
Кодек/профиль: Layer 2
Частота дискретизации: 48.0 KHz
Каналов: 2 channels
Битрейт: 192 Kbps
Битрейт/тип: Constant
Размер потока: 130 MiB (4%)
Метод сжатия: Lossy

pb.wtf



Скачать Позывной "Стая" через торрент http://pic.kartinco.top/images/8/8tzng.jpg Скачать фильм Позывной "Стая" через торрент бесплантно в хорошем качестве Описание: Будучи в отставке, члены частного боевого отряда исполняют заказы в разных странах. Имея покровителя в российских спецслужбах, ... 9.3 10 14
Торрент: Зарегистрирован [2014-12-10 14:54] · скачан: 365 раз
Статус: √ проверено
Размер: 18.41 GB
Как cкачать? Как скачать Позывной "Стая" через торрент | qTorrent

28-11-2019 20:33  

Отключить всю рекламу на сайте

03-04-2016 05:07 Позывной "Стая" Скачать торрент  

Спасибо автору!pb.wtf



    Дорогой пользователь! Огромная просьба, поблагодарите релизера, оцените раздачу и оставьте свои комментарий, если Вы скачали Позывной "Стая" через торрент бесплатно! Внесите свою лепту в развитие PiratBit!
    Комментировать посты могут только пользователи прошедшие не сложную регистрацию
    Показать сообщения:    

    Позывной "Стая" через торрент
    Скачать бесплатно Позывной "Стая"
    Позывной "Стая" скачать торрент
    Позывной "Стая" смотреть онлайн
    Cкачать фильм Позывной "Стая" бесплатно
    Позывной "Стая" скачать торрент в хорошем качестве
    Позывной "Стая" смотреть онлайн бесплатно в хорошем качестве


    Вы не можете начинать темы
    Вы не можете отвечать на сообщения
    Вы не можете редактировать свои сообщения
    Вы не можете удалять свои сообщения
    Вы не можете голосовать в опросах
    Вы не можете прикреплять файлы к сообщениям
    Вы можете скачивать файлы