Ссылка на приватное зеркало нашего сайта всего за 1$. Внимание количество ограничено!!!

2 сезон

iTunes

1 сезон

1

2 сезон

2 сезон

iTunes

1 сезон

RePack

30

Новинка

ВАЖНО

ИГРА 18+

pack

RePack

MK11
pack

Забери бонус

RePack

jed

!!Акция!!

Alien_Rage

RePack

fifa19

RePack

Assassins Creed: Odyssey

RePack

NEED FOR SPEED™ PAYBACK

4 сезон

9 сезон

Бесстыжие 9 сезон

Все сериалы

все сериалы на PB.wtf

RePack

FAR CRY 5
  

Квест / The Quest / Cезон 1 / Серии 1-4 (10)(Марк Ордески, Клинт Лиллей, Филип Лайолл) [2014 г., фэнтези, приключения, реалити, WEB-DL 1080p] MVO(BaibaKo)+ Original pb.wtf

Квест через торрент pb.wtf

Размер: 7.07 GB | Добавлен: 5 лет 11 мес. назад | Торрент скачан:64 раза
Скачать  

10-12-2014 15:57 Квест Скачать торрент  

Квест / The Quest
Год выпуска: 2014
Страна: США
Жанр: фэнтези, приключения, реалити
Продолжительность: 00:43:00
Перевод: Профессиональный многоголосый (BaibaKo)

Режиссер: Марк Ордески, Клинт Лиллей, Филип Лайолл



В ролях: Стэфани Бадденброк, Сюзанна Гшвендтнер, Ян Хуттер, Май Дуонг Кию, Питер Виндхофер, Дэвид Вурава, Марселло Де Нардо

Описание: В воображаемый мир Эверэльм прибывают 12 паладинов. Им предстоит сражаться и пройти множество испытаний, чтобы спасти королевство Санктум от тёмных сил. Победит только один!

Премьера «The Quest» взбудоражила всех любителей «Игры престолов» и прочих фэнтезийных выдуманных миров. Это шоу делают лучшие продюсеры на ТВ, среди которых есть и Марк Ордески, работавший над трилогией Питера Джексона «Властелин колец». Принципиально важный момент: все участники «Квеста» сражаются не за призы и не за деньги, а за почтеннейший титул «Единственного Настоящего Героя». А действие происходит в настоящем австрийском замке, окруженном 70 акрами лесных угодий.

Качество: WEB-DL 1080p
Формат: MKV
Видео кодек: AVC
Аудио кодек: AC3
Видео: 1920x1080 (16:9), 23.976 fps, 5 042 Kbps (0.101 bit/pixel)
Аудио#1: 48.0 KHz, 6 ch, 384 Kbps, CBR (Russian)
Аудио#2: 48.0 KHz, 6 ch, 384 Kbps, CBR (English)
Релиз от: скриншот  
Перевод: Янина Галицкая
Озвучка: Юлия Котурбаш, Елена Григорьева, Александр Фурман и Олекса Мельник
Монтаж: Виталий Ткаченко
Обложка: Антон Максимов
Спонсор показа — компания "Интерлопер"!
Внимание! Раздача ведётся путём добавления новых серий; при каждом добавлении создаётся новый торрент. Чтобы начать докачку новой серии, пользователям необходимо сделать следующее:
(1) остановить скачивание,
(2) удалить старый торрент у себя из клиента (старые серии удалять не надо),
(3) скачать новый торрент и запустить его у себя в клиенте вместо старого, при этом указать клиенту путь в старую папку куда и должно происходить скачивание новых серий.
Ваш клиент при этом должен произвести хеширование (проверку) старой папки (если не производит сам - помогите ему сделать это), и будет докачивать только те серии которых у вас ещё нет. Старые серии при этом не удаляются, а продолжают раздаваться!
Eсли вы уже удалили старые серии, то предотвратить повторную закачку старых серий можно, отжав галочку в соответсвующих местах при запуске нового торрента. По возможности, желательно не удалять старые серии как можно дольше чтобы релизёр не столько продолжал раздавать старые серии, а смог сконцентрироваться на новых.

Общее
Уникальный идентификатор : 215575380424398016436500908343488510387 (0xA22E4EDBEB5585B9977BD3C094F979B3)
Полное имя : F:\Квест The Quest\Квест.s01.1080p.Boerboel-Frol\The.Quest.s01e01.HD1080p.WEB-DL.Rus-Eng.BaibaKo.tv.mkv
Формат : Matroska
Версия формата : Version 4 / Version 2
Размер файла : 1,77 Гбайт
Продолжительность : 43 м.
Общий поток : 5871 Кбит/сек
Дата кодирования : UTC 2014-08-05 00:02:30
Программа кодирования : mkvmerge v6.7.0 ('Back to the Ground') 64bit built on Jan 8 2014 15:10:52
Библиотека кодирования : libebml v1.3.0 + libmatroska v1.4.1

Видео
Идентификатор : 1
Формат : AVC
Формат/Информация : Advanced Video Codec
Профиль формата : High@L4.0
Параметр CABAC формата : Да
Параметр ReFrames формата : 4 кадра
Идентификатор кодека : V_MPEG4/ISO/AVC
Продолжительность : 43 м.
Битрейт : 4986 Кбит/сек
Ширина : 1920 пикселей
Высота : 1080 пикселей
Соотношение сторон : 16:9
Режим частоты кадров : Постоянный
Частота кадров : 23,976 кадра/сек
Цветовое пространство : YUV
Субдискретизация насыщенности : 4:2:0
Битовая глубина : 8 бит
Тип развёртки : Прогрессивная
Бит/(Пиксели*Кадры) : 0.100
Размер потока : 1,50 Гбайт (85%)
Язык : English
Default : Да
Forced : Нет
Основные цвета : BT.709
Характеристики трансфера : BT.709
Коэффициенты матрицы : BT.709

Аудио #1
Идентификатор : 2
Формат : AC-3
Формат/Информация : Audio Coding 3
Расширение режима : CM (complete main)
Параметр Endianness формата : Big
Идентификатор кодека : A_AC3
Продолжительность : 43 м.
Вид битрейта : Постоянный
Битрейт : 384 Кбит/сек
Каналы : 6 каналов
Расположение каналов : Front: L C R, Side: L R, LFE
Частота : 48,0 КГц
Битовая глубина : 16 бит
Метод сжатия : С потерями
Размер потока : 118 Мбайт (7%)
Язык : Russian
Default : Да
Forced : Нет

Аудио #2
Идентификатор : 3
Формат : AC-3
Формат/Информация : Audio Coding 3
Расширение режима : CM (complete main)
Параметр Endianness формата : Big
Идентификатор кодека : A_AC3
Продолжительность : 43 м.
Вид битрейта : Постоянный
Битрейт : 384 Кбит/сек
Каналы : 6 каналов
Расположение каналов : Front: L C R, Side: L R, LFE
Частота : 48,0 КГц
Битовая глубина : 16 бит
Метод сжатия : С потерями
Размер потока : 118 Мбайт (7%)
Язык : English
Default : Нет
Forced : Нет


Квест скачать торрент


pb.wtf



Скачать Квест через торрент http://pic.kartinco.top/images/8/1hzp5.jpg Скачать фильм Квест через торрент бесплантно в хорошем качестве Описание: В воображаемый мир Эверэльм прибывают 12 паладинов. Им предстоит сражаться и пройти множество испытаний, чтобы спасти королевство ... 10 10 3
Торрент: Зарегистрирован [2014-12-10 15:57] · скачан: 64 раз
Статус: √ проверено
Размер: 7.07 GB
Как cкачать? Как скачать Квест через торрент | qTorrent

% Раздел Тема Автор DL S | L
Зарубежные сериалы [ 2.28 GB ] Квест / The Quest / Cезон 1 / Серии 1-4 [2014 реалити WEB-DLRip x264] MVO+ Original Assasinca Скачать
1 | 0

28-11-2019 20:33  

Отключить всю рекламу на сайте

    Дорогой пользователь! Огромная просьба, поблагодарите релизера, оцените раздачу и оставьте свои комментарий, если Вы скачали Квест через торрент бесплатно! Внесите свою лепту в развитие PiratBit!
    Комментировать посты могут только пользователи прошедшие не сложную регистрацию
    Показать сообщения:    

    Квест через торрент
    Скачать бесплатно Квест
    Квест скачать торрент
    Квест смотреть онлайн
    Cкачать фильм Квест бесплатно
    Квест скачать торрент в хорошем качестве
    Квест смотреть онлайн бесплатно в хорошем качестве


    Вы не можете начинать темы
    Вы не можете отвечать на сообщения
    Вы не можете редактировать свои сообщения
    Вы не можете удалять свои сообщения
    Вы не можете голосовать в опросах
    Вы не можете прикреплять файлы к сообщениям
    Вы можете скачивать файлы