2 сезон

iTunes

MVO

1

2 сезон

iTunes

iTunes

1 сезон

RePack

30

Новинка

ВАЖНО

ИГРА 18+

pack

RePack

MK11
pack

Легкие деньги

RePack

jed

RePack

fifa19

RePack

RDR2

RePack

NEED FOR SPEED™ PAYBACK

4 сезон

9 сезон

Бесстыжие 9 сезон

Все сериалы

все сериалы на PB.wtf

RePack

FAR CRY 5

Anonymous, добрый день, мы не успеваем собрать деньги на оплату серверов за декабрь и январь, помогите нам пожалуйста в это трудное время. В качестве благодарности мы отключим Вам всю рекламу на сайте (укажите свой ник в строку Ваше имя)!

×
  
Magnet ссылка

Экстрасенс 2: Лабиринты разума / Mindscape (Хорхе С. Дорадо) [2013, США, Триллер, драма, HDRip,Дублированный [чистый звук] Официальный]] pb.wtf

Экстрасенс 2: Лабиринты разума через торрент pb.wtf

Размер: 1.37 GB | Добавлен: 6 лет 1 мес. назад | Торрент скачан:1624 раза
Скачать  

24-11-2014 19:06 Экстрасенс 2: Лабиринты разума Скачать торрент  

Экстрасенс 2: Лабиринты разума / Mindscape Год выпуска: 2013
Выпущено:: США, Испания, Франция, Antena 3 Films, Ombra Films, Roxbury Pictures, The Safran Company, Studio Canal
Жанр: Триллер, драма
Длительность: 01:38:50
Перевод: Дублированный [[чистый звук] Официальный]
Субтитры: Отсутствуют
Режиссер:Хорхе С. Дорадо
В ролях:
Индира Варма, Таисса Фармига, Марк Стронг, Брайан Кокс, Ноа Тейлор, Род Халлетт, Саския Ривз, Джессика Барден, Клер Кэлбрайт, Альберто Амман
Описание:
Джон — человек, обладающий паранормальными способностями, расследует новое дело. В этот раз ему предстоит общение с 16 летней напуганной девушкой, и главному герою предстоит ответить на вопрос — кто такая Анна? Жертва обстоятельств или убийца-социопат?
Рейтинг:

Качество: HDRip
Формат: AVI
Видео кодек: XviD
Аудио кодек:Русский-AC3
Видео: 720x304, 1587 kbps, 23,976 fps, 0.305
Аудио#1: Русский / 2 ch / 48 kHz / 384 kbps / 16 bit








Общее
Полное имя : D:\uTorrent\Extrasens.2.Lab1rinty.R4zuma.2013.D.HDRip.1400MB.avi
Формат : AVI
Формат/Информация : Audio Video Interleave
Размер файла : 1,37 Гбайт
Продолжительность : 1 ч. 38 м.
Общий поток : 1980 Кбит/сек
Программа кодирования : VirtualDubMod 1.5.10.2 (build 2540/release)
Библиотека кодирования : VirtualDubMod build 2540/release

Видео
Идентификатор : 0
Формат : MPEG-4 Visual
Профиль формата : Advanced Simple@L5
Параметр BVOP формата : 2
Параметр QPel формата : Нет
Параметр GMC формата : Без точки перехода
Параметр матрицы формата : Default (MPEG)
Идентификатор кодека : XVID
Идентификатор кодека/Подсказка : XviD
Продолжительность : 1 ч. 38 м.
Битрейт : 1587 Кбит/сек
Ширина : 720 пикселей
Высота : 304 пикселя
Соотношение сторон : 2,35:1
Частота кадров : 23,976 кадра/сек
Цветовое пространство : YUV
Субдискретизация насыщенности : 4:2:0
Битовая глубина : 8 бит
Тип развёртки : Прогрессивная
Метод сжатия : С потерями
Бит/(Пиксели*Кадры) : 0.302
Размер потока : 1,10 Гбайт (80%)
Библиотека кодирования : XviD 1.2.1 (UTC 2008-12-04)

Аудио
Идентификатор : 1
Формат : AC-3
Формат/Информация : Audio Coding 3
Расширение режима : CM (complete main)
Параметр Endianness формата : Big
Идентификатор кодека : 2000
Продолжительность : 1 ч. 38 м.
Вид битрейта : Постоянный
Битрейт : 384 Кбит/сек
Каналы : 2 канала
Расположение каналов : Front: L R
Частота : 48,0 КГц
Битовая глубина : 16 бит
Метод сжатия : С потерями
Размер потока : 271 Мбайт (19%)
Выравнивание : Разделение по промежуткам
Продолжительность промежутка : 42 мс. (1,00 видеокадр)
Время предзагрузки промежутка : 500 мс.

Приятного просмотра! Не забывайте говорить спасибо!pb.wtf



Скачать Экстрасенс 2: Лабиринты разума через торрент http://i63.fastpic.ru/big/2014/1112/5a/f5aef8eda8a54815b7e8b279db7b0f5a.jpg Скачать фильм Экстрасенс 2: Лабиринты разума через торрент бесплантно в хорошем качестве Описание: Джон — человек, обладающий паранормальными способностями, расследует новое дело. В этот раз ему предстоит общение с 16 летней ... 9.6 10 64
Торрент: Зарегистрирован [2014-12-10 16:11] · скачан: 1 624 раз
Статус: T временная
Размер: 1.37 GB
Как cкачать? Как скачать Экстрасенс 2: Лабиринты разума через торрент | UTorrent

% Раздел Тема Автор DL S | L
T Фильмы [HD 720p, 1080p] (Хороший звук DUB, MVO) [ 9.77 GB ] Экстрасенс 2: Лабиринты разума / Mindscape [2013 BDRip 1080p ] / Чистый звук Ворон Скачать
1 | 0
T Фильмы 2013 [DVDrip, WEB-DLRip, HDrip] [ 1.42 GB ] Экстрасенс 2: Лабиринты разума / Mindscape [2013 BDRip - [Официальный] Twi7ter Скачать
1 | 0
T Фильмы [HD 720p, 1080p] (Хороший звук DUB, MVO) [ 4.09 GB ] Экстрасенс 2: Лабиринты разума / Mindscape [2013 BDRip 720p Чистый звук] Anonymous Скачать
1 | 0

28-11-2019 20:33  

Отключить всю рекламу на сайте

27-11-2014 06:08 Экстрасенс 2: Лабиринты разума Скачать торрент  

отличное киноpb.wtf



28-11-2014 14:17 Экстрасенс 2: Лабиринты разума Скачать торрент  

Мне тоже понравился. Интересный фильм.pb.wtf



10-12-2014 16:54 Экстрасенс 2: Лабиринты разума Скачать торрент  

осилил до половины..pb.wtf



12-12-2014 07:19 Экстрасенс 2: Лабиринты разума Скачать торрент  

посмотрюpb.wtf



    Дорогой пользователь! Огромная просьба, поблагодарите релизера, оцените раздачу и оставьте свои комментарий, если Вы скачали Экстрасенс 2: Лабиринты разума через торрент бесплатно! Внесите свою лепту в развитие PiratBit!
    Комментировать посты могут только пользователи прошедшие не сложную регистрацию
    Показать сообщения:    

    Экстрасенс 2: Лабиринты разума через торрент
    Скачать бесплатно Экстрасенс 2: Лабиринты разума
    Экстрасенс 2: Лабиринты разума скачать торрент
    Экстрасенс 2: Лабиринты разума смотреть онлайн
    Cкачать фильм Экстрасенс 2: Лабиринты разума бесплатно
    Экстрасенс 2: Лабиринты разума скачать торрент в хорошем качестве
    Экстрасенс 2: Лабиринты разума смотреть онлайн бесплатно в хорошем качестве


    Вы не можете начинать темы
    Вы не можете отвечать на сообщения
    Вы не можете редактировать свои сообщения
    Вы не можете удалять свои сообщения
    Вы не можете голосовать в опросах
    Вы не можете прикреплять файлы к сообщениям
    Вы можете скачивать файлы