Всегда рабочее зеркало без VPN и Proxy просто перед .vidak.icu напиши любое слово или цифру, Пример http://0suz.vidak.icu

MVO

2 сезон

1 сезон

1

1 сезон

iTunes

2 сезон

13

1 сезон

Deluxe

pack

Рекомендуем

Пиратка

30

ВАЖНО

RePack

MK11

RePack

jed

RePack

fifa19

RePack

RDR2

RePack

NEED FOR SPEED™ PAYBACK

Кинопоиск HD

6 сезон

 Острые козырьки 6 сезон

Все сериалы

все сериалы на PB.wtf

RePack

FAR CRY 5

Anonymous, нам критически не хватает 5601 руб. на оплату серверов и переферии за Апрель, помоги нам пожалуйста, вся надежда только на тебя. В благодарность мы отключим тебе всю рекламу на сайте!

×
  
Magnet ссылка

Голодные игры. Дилогия / The Hunger Games. Dilogy [2012-2013 г., фантастика, приключения, BDRip 720p] [DUB] pb.wtf

Голодные игры. Дилогия через торрент pb.wtf

Размер: 22 GB | Добавлен: 7 лет 5 мес. назад | Торрент скачан:141 раз
Смотреть онлайн Голодные игры. Дилогия | Скачать    Ребята, помогите собрать деньги на оплату серверов!!!

10-12-2014 16:55 Голодные игры. Дилогия Скачать торрент  

Голодные игры. ДилогияThe Hunger Games. Dilogy(2012-2013) BDRip
Эти парень и девушка знакомы с детства и еще могут полюбить друг друга, но им придется стать врагами... По жребию они должны участвовать в страшных "Голодных играх", где выживает только один - сильнейший. Пока в жестоком квесте остаются хотя бы какие-то участники, Китнисс и Пит могут защищать друг друга и сражаться вместе. Но рано или поздно кому-то из них придется пожертвовать жизнью ради любимого... Таков закон "Голодных игр". Закон, который не нарушался еще никогда!

Голодные игрыThe Hunger Games«Да пребудет с вами удача»
Год выпуска: 2012
Производство: USA / Lionsgate, Color Force
Жанр: фантастика, приключения
Длительность: 02:22:33
Перевод: профессиональный (полное дублирование)
Вид субтитров: вшитые, отключаемые
Язык субтитров: русские, английские (Full, SDH)

Режиссер: Гэри Росс
Актеры: Дженнифер Лоуренс, Джош Хатчерсон, Лиам Хемсворт, Вуди Харрельсон, Элизабет Бэнкс, Уэс Бентли, Дональд Сазерленд, Стэнли Туччи, Ленни Кравиц, Амандла Стенберг

Описание фильма: Будущее. Деспотичное государство ежегодно устраивает показательные игры на выживание, за которыми в прямом эфире следит весь мир. Жребий участвовать в Играх выпадает юной Китнисс и тайно влюбленному в нее Питу. Они знакомы с детства, но теперь должны стать врагами. Ведь по нерушимому закону Голодных игр победить может только один из 24 участников. Судьям не важно кто выиграет, главное — зрелище. И на этот раз зрелище будет незабываемым...


Рейтинг MPAA: PG-13 - Детям до 13 лет просмотр не желателен
Дата мировой премьеры: 12 марта 2012
Дата российской премьеры: 22 марта 2012, «Вольга»
Дата выхода DVD релиза: 23 августа 2012, «Вольга»
Дата выхода Blu-Ray релиза: 23 августа 2012, «Вольга»

Качество: BDRip (720p)
Формат: MKV
Видео кодек: AVC/H.264
Аудио кодек: DTS
Видео: MPEG-4 AVC/H.264, 1280 x 534 (2,40:1), 7 240 kbps, 23.976 fps, 0.442 b/px
Аудио # 1: DTS, 6 ch, 1509 kbps, 48 000 Hz [дублированный (Blu-Ray)]
Аудио # 2: DTS, 6 ch, 1509 kbps, 48 000 Hz [оригинальный]
_

Код:

Общее
Уникальный идентификатор                 : 224710913021316763173976162149148241169 (0xA90DBF642502EC46BF5210F0289DAD11)
Полное имя                               : D:\Голодные игры. Дилогия [BDRip] [720p]\[2012] Голодные игры [BDRip] [720p].mkv
Формат                                   : Matroska
Версия формата                           : Version 4 / Version 2
Размер файла                             : 10,2 Гбайт
Продолжительность                        : 2 ч. 22 м.
Общий поток                              : 10,2 Мбит/сек
Название фильма                          : Голодные игры / The Hunger Games (2012) BDRip [720p]
Дата кодирования                         : UTC 2014-12-04 09:16:36
Программа кодирования                    : mkvmerge v7.2.0 ('On Every Street') 32bit built on Sep 13 2014 15:42:11
Библиотека кодирования                   : libebml v1.3.0 + libmatroska v1.4.1
DURATION                                 : 02:11:38.099000000
NUMBER_OF_FRAMES                         : 1250
NUMBER_OF_BYTES                          : 39034
_STATISTICS_WRITING_APP                  : mkvmerge v7.2.0 ('On Every Street') 32bit built on Sep 13 2014 15:42:11
_STATISTICS_WRITING_DATE_UTC             : 2014-12-04 09:16:36
_STATISTICS_TAGS                         : BPS DURATION NUMBER_OF_FRAMES NUMBER_OF_BYTES

Видео
Идентификатор                            : 1
Формат                                   : AVC
Формат/Информация                        : Advanced Video Codec
Профиль формата                          : High@L4.1
Параметр CABAC формата                   : Да
Параметр ReFrames формата                : 10 кадров
Идентификатор кодека                     : V_MPEG4/ISO/AVC
Продолжительность                        : 2 ч. 22 м.
Битрейт                                  : 7240 Кбит/сек
Ширина                                   : 1280 пикселей
Высота                                   : 534 пикселя
Соотношение сторон                       : 2,40:1
Режим частоты кадров                     : Постоянный
Частота кадров                           : 23,976 кадра/сек
Цветовое пространство                    : YUV
Субдискретизация насыщенности            : 4:2:0
Битовая глубина                          : 8 бит
Тип развёртки                            : Прогрессивная
Бит/(Пиксели*Кадры)                      : 0.442
Размер потока                            : 7,00 Гбайт (69%)
Заголовок                                : [2012] Голодные игры / The Hunger Games [BDRip] [720p]
Библиотека кодирования                   : x264 core 125 r2208 d9d2288
Настройки программы                      : cabac=1 / ref=10 / deblock=1:-3:-3 / analyse=0x3:0x113 / me=umh / subme=10 / psy=1 / psy_rd=1.10:0.15 / mixed_ref=1 / me_range=32 / chroma_me=1 / trellis=2 / 8x8dct=1 / cqm=0 / deadzone=21,11 / fast_pskip=0 / chroma_qp_offset=-2 / threads=12 / lookahead_threads=2 / sliced_threads=0 / nr=0 / decimate=1 / interlaced=0 / bluray_compat=0 / constrained_intra=0 / bframes=6 / b_pyramid=2 / b_adapt=2 / b_bias=0 / direct=3 / weightb=1 / open_gop=0 / weightp=2 / keyint=250 / keyint_min=23 / scenecut=40 / intra_refresh=0 / rc_lookahead=60 / rc=2pass / mbtree=0 / bitrate=7240 / ratetol=1.0 / qcomp=0.60 / qpmin=0 / qpmax=69 / qpstep=4 / cplxblur=20.0 / qblur=0.5 / vbv_maxrate=40000 / vbv_bufsize=30000 / nal_hrd=none / ip_ratio=1.40 / pb_ratio=1.30 / aq=1:0.80
Язык                                     : English
Default                                  : Да
Forced                                   : Нет
DURATION                                 : 02:22:33.330000000
NUMBER_OF_FRAMES                         : 205075
NUMBER_OF_BYTES                          : 7727040076
_STATISTICS_WRITING_APP                  : mkvmerge v7.2.0 ('On Every Street') 32bit built on Sep 13 2014 15:42:11
_STATISTICS_WRITING_DATE_UTC             : 2014-12-04 09:16:36
_STATISTICS_TAGS                         : BPS DURATION NUMBER_OF_FRAMES NUMBER_OF_BYTES

Аудио #1
Идентификатор                            : 2
Формат                                   : DTS
Формат/Информация                        : Digital Theater Systems
Режим                                    : 16
Параметр Endianness формата              : Big
Идентификатор кодека                     : A_DTS
Продолжительность                        : 2 ч. 22 м.
Вид битрейта                             : Постоянный
Битрейт                                  : 1509 Кбит/сек
Каналы                                   : 6 каналов
Расположение каналов                     : Front: L C R, Side: L R, LFE
Частота                                  : 48,0 КГц
Битовая глубина                          : 16 бит
Метод сжатия                             : С потерями
Размер потока                            : 1,50 Гбайт (15%)
Заголовок                                : Дублированный (Blu-Ray)
Язык                                     : Russian
Default                                  : Да
Forced                                   : Нет

Аудио #2
Идентификатор                            : 3
Формат                                   : DTS
Формат/Информация                        : Digital Theater Systems
Режим                                    : 16
Параметр Endianness формата              : Big
Идентификатор кодека                     : A_DTS
Продолжительность                        : 2 ч. 22 м.
Вид битрейта                             : Постоянный
Битрейт                                  : 1509 Кбит/сек
Каналы                                   : 6 каналов
Расположение каналов                     : Front: L C R, Side: L R, LFE
Частота                                  : 48,0 КГц
Битовая глубина                          : 24 бит
Метод сжатия                             : С потерями
Задержка видео                           : 11 мс.
Размер потока                            : 1,50 Гбайт (15%)
Заголовок                                : Оригинальный
Язык                                     : English
Default                                  : Нет
Forced                                   : Нет

Текст #1
Идентификатор                            : 4
Формат                                   : UTF-8
Идентификатор кодека                     : S_TEXT/UTF8
Идентификатор кодека/Информация          : UTF-8 Plain Text
Заголовок                                : Russian
Язык                                     : Russian
Default                                  : Нет
Forced                                   : Нет

Текст #2
Идентификатор                            : 5
Формат                                   : UTF-8
Идентификатор кодека                     : S_TEXT/UTF8
Идентификатор кодека/Информация          : UTF-8 Plain Text
Заголовок                                : English
Язык                                     : English
Default                                  : Нет
Forced                                   : Нет

Текст #3
Идентификатор                            : 6
Формат                                   : UTF-8
Идентификатор кодека                     : S_TEXT/UTF8
Идентификатор кодека/Информация          : UTF-8 Plain Text
Заголовок                                : English (SDH)
Язык                                     : English
Default                                  : Нет
Forced                                   : Нет

Меню
00:00:00.000                             : en:00:00:00.000
00:10:05.814                             : en:00:10:05.814
00:18:00.079                             : en:00:18:00.079
00:25:05.879                             : en:00:25:05.879
00:31:12.662                             : en:00:31:12.662
00:43:28.564                             : en:00:43:28.564
00:50:38.702                             : en:00:50:38.702
00:56:58.915                             : en:00:56:58.915
01:06:57.764                             : en:01:06:57.764
01:15:58.971                             : en:01:15:58.971
01:22:06.046                             : en:01:22:06.046
01:29:00.418                             : en:01:29:00.418
01:38:00.750                             : en:01:38:00.750
01:43:19.193                             : en:01:43:19.193
01:57:56.611                             : en:01:57:56.611
02:09:26.550                             : en:02:09:26.550


Золотой глобус, 2013 год

Номинации (1):

*** Лучшая песня — «Safe and Sound»

Жорж, 2013 год

Номинации (2):

*** Лучший зарубежный экшн
*** Лучшая зарубежная драма

Сатурн, 2013 год

Победитель (1):

*** Лучшая актриса (Дженнифер Лоуренс)

Номинации (1):

*** Лучший научно-фантастический фильм

Премия канала «MTV», 2012 год

Победитель (4):

*** Лучшая мужская роль (Джош Хатчерсон)
*** Лучшая женская роль (Дженнифер Лоуренс)
*** Лучшее экранное перевоплощение (Элизабет Бэнкс)
*** Лучшая драка

Номинации (4):

*** Лучший фильм
*** Прорыв года (Лиам Хемсворт)
*** Лучший актерский состав
*** Лучший поцелуй

*** Фильм снят по мотивам романа Сьюзен Коллинз «Голодные игры» (The Hunger Games, 2008).

*** Стивен Содерберг стал режиссером второй съемочной группы фрагмента, относящегося к событиям в Одиннадцатом дистрикте.

*** Александр Людвиг, утвержденный на роль Катона, мог сыграть роль Пита Мелларка.

*** Ленни Кравиц, утвержденный на роль Цинны, стилиста Китнисс, на самом деле вдвое старше своего героя.

*** На роль Китнисс было рассмотрено около 30 актрис, среди них — Хейли Стайнфелд, Эбигейл Бреслин, Эмма Робертс, Сирша Ронан, Хлоя Грейс Морец, Линдси Фонсека, Джоделль Ферланд, Эмили Браунинг, Шейлин Вудли и Кая Скоделарио.

*** Кроме Джоша Хатчерсона, претендентами на роль Пита были Хантер Пэрриш, Лукас Тилл и Эван Питерс.

*** Кроме Лиама Хемсворта, претендентами на роль Гейла были Дэвид Генри, Робби Амелл и Дрю Рой.

*** Дженнифер Лоуренс потребовалось 3 дня, чтобы согласиться на роль Китнисс Эвердин.

*** Английские дистрибьюторы потребовали от компании Lionsgate вырезать некоторые особо жестокие сцены насилия, в результате чего фильм стал короче на семь секунд.

*** Джон Си Райли пробовался на роль Хеймитча Эбернети.

*** В начале фильма Китнисс достает из дерева лук с уже натянутой тетивой. Любой, кто хоть как-то занимался стрельбой из лука, знает, что лук не хранят с натянутой тетивой (да еще и на улице), он от этого сильно портится.
Скриншоты:

Голодные игры: И вспыхнет пламяThe Hunger Games: Catching Fire«Помни, кто твой настоящий враг»
Год выпуска: 2013
Производство: USA / Color Force, Lionsgate
Жанр: фантастика, приключения
Длительность: 02:26:15
Перевод: профессиональный (полное дублирование)
Вид субтитров: вшитые, отключаемые
Язык субтитров: русские, английские (Full, SDH)

Режиссер: Френсис Лоуренс
Актеры: Дженнифер Лоуренс, Джош Хатчерсон, Лиам Хемсворт, Вуди Харрельсон, Сэм Клафлин, Джеффри Райт, Джена Мэлоун, Элизабет Бэнкс, Дональд Сазерленд, Филип Сеймур Хоффман

Описание фильма: Сумев выжить на безжалостных Голодных играх, Китнисс Эвердин и Пит Мелларк возвращаются домой. Но теперь они в еще большей опасности, так как своим отказом играть по правилам на Арене бросили вызов Капитолию. По традиции следующие, юбилейные, Голодные игры должны стать особенными, и в этот раз в них участвуют только победители прошлых лет. Китнисс и Пит вынуждены вновь выйти на Арену, где будут соперничать с сильнейшими. Правила игры меняются. Арена еще опасней, масштаб еще больше, ставки еще выше!..


Рейтинг MPAA: PG-13 - Детям до 13 лет просмотр не желателен
Дата мировой премьеры: 11 ноября 2013
Дата российской премьеры: 21 ноября 2013, «Вольга»
Дата выхода DVD релиза: 14 марта 2014, «Вольга»
Дата выхода Blu-Ray релиза: 14 марта 2014, «Вольга»

Качество: BDRip (720p)
Формат: MKV
Видео кодек: AVC/H.264
Аудио кодек: DTS
Видео: MPEG-4 AVC/H.264, 1280 x 720 (16:9), 8 303 kbps, 23.976 fps, 0.376 b/px
Аудио # 1: DTS, 6 ch, 1509 kbps, 48 000 Hz [дублированный (Blu-Ray)]
Аудио # 2: DTS, 6 ch, 1509 kbps, 48 000 Hz [оригинальный]
_

Код:

Общее
Уникальный идентификатор                 : 199459228095450277854283060529607514763 (0x960E7333AE54A0DE9546B9C5B1E89A8B)
Полное имя                               : D:\Голодные игры. Дилогия [BDRip] [720p]\[2013] Голодные игры. И вспыхнет пламя [BDRip] [720p].mkv
Формат                                   : Matroska
Версия формата                           : Version 4 / Version 2
Размер файла                             : 11,8 Гбайт
Продолжительность                        : 2 ч. 26 м.
Общий поток                              : 11,6 Мбит/сек
Название фильма                          : Голодные игры: И вспыхнет пламя / The Hunger Games: Catching Fire (2013) BDRip [720p]
Дата кодирования                         : UTC 2014-12-04 21:30:54
Программа кодирования                    : mkvmerge v7.2.0 ('On Every Street') 32bit built on Sep 13 2014 15:42:11
Библиотека кодирования                   : libebml v1.3.0 + libmatroska v1.4.1
DURATION                                 : 02:13:51.190000000
NUMBER_OF_FRAMES                         : 2003
NUMBER_OF_BYTES                          : 53805
_STATISTICS_WRITING_APP                  : mkvmerge v7.2.0 ('On Every Street') 32bit built on Sep 13 2014 15:42:11
_STATISTICS_WRITING_DATE_UTC             : 2014-12-04 21:30:54
_STATISTICS_TAGS                         : BPS DURATION NUMBER_OF_FRAMES NUMBER_OF_BYTES

Видео
Идентификатор                            : 1
Формат                                   : AVC
Формат/Информация                        : Advanced Video Codec
Профиль формата                          : High@L4.1
Параметр CABAC формата                   : Да
Параметр ReFrames формата                : 9 кадров
Идентификатор кодека                     : V_MPEG4/ISO/AVC
Продолжительность                        : 2 ч. 26 м.
Битрейт                                  : 8303 Кбит/сек
Ширина                                   : 1280 пикселей
Высота                                   : 720 пикселей
Соотношение сторон                       : 16:9
Режим частоты кадров                     : Постоянный
Частота кадров                           : 23,976 кадра/сек
Цветовое пространство                    : YUV
Субдискретизация насыщенности            : 4:2:0
Битовая глубина                          : 8 бит
Тип развёртки                            : Прогрессивная
Бит/(Пиксели*Кадры)                      : 0.376
Размер потока                            : 8,48 Гбайт (72%)
Заголовок                                : [2013] Голодные игры: И вспыхнет пламя / The Hunger Games: Catching Fire [BDRip] [720p]
Библиотека кодирования                   : x264 core 140 r2377 1ca7bb9
Настройки программы                      : cabac=1 / ref=9 / deblock=1:-3:-3 / analyse=0x3:0x133 / me=umh / subme=10 / psy=1 / psy_rd=1.10:0.00 / mixed_ref=1 / me_range=48 / chroma_me=1 / trellis=2 / 8x8dct=1 / cqm=0 / deadzone=21,11 / fast_pskip=0 / chroma_qp_offset=-2 / threads=12 / lookahead_threads=2 / sliced_threads=0 / nr=0 / decimate=0 / interlaced=0 / bluray_compat=0 / constrained_intra=0 / bframes=8 / b_pyramid=2 / b_adapt=2 / b_bias=0 / direct=3 / weightb=1 / open_gop=0 / weightp=2 / keyint=240 / keyint_min=23 / scenecut=40 / intra_refresh=0 / rc_lookahead=60 / rc=crf / mbtree=0 / crf=15.0 / qcomp=0.60 / qpmin=0 / qpmax=69 / qpstep=4 / vbv_maxrate=62500 / vbv_bufsize=78125 / crf_max=0.0 / nal_hrd=none / filler=0 / ip_ratio=1.30 / pb_ratio=1.10 / aq=1:0.90
Язык                                     : English
Default                                  : Да
Forced                                   : Нет
DURATION                                 : 02:26:14.558000000
NUMBER_OF_FRAMES                         : 210379
NUMBER_OF_BYTES                          : 9355211913
_STATISTICS_WRITING_APP                  : mkvmerge v7.2.0 ('On Every Street') 32bit built on Sep 13 2014 15:42:11
_STATISTICS_WRITING_DATE_UTC             : 2014-12-04 21:30:54
_STATISTICS_TAGS                         : BPS DURATION NUMBER_OF_FRAMES NUMBER_OF_BYTES

Аудио #1
Идентификатор                            : 2
Формат                                   : DTS
Формат/Информация                        : Digital Theater Systems
Режим                                    : 16
Параметр Endianness формата              : Big
Идентификатор кодека                     : A_DTS
Продолжительность                        : 2 ч. 26 м.
Вид битрейта                             : Постоянный
Битрейт                                  : 1509 Кбит/сек
Каналы                                   : 6 каналов
Расположение каналов                     : Front: L C R, Side: L R, LFE
Частота                                  : 48,0 КГц
Битовая глубина                          : 16 бит
Метод сжатия                             : С потерями
Размер потока                            : 1,54 Гбайт (13%)
Заголовок                                : Дублированный (Blu-Ray)
Язык                                     : Russian
Default                                  : Да
Forced                                   : Нет

Аудио #2
Идентификатор                            : 3
Формат                                   : DTS
Формат/Информация                        : Digital Theater Systems
Режим                                    : 16
Параметр Endianness формата              : Big
Идентификатор кодека                     : A_DTS
Продолжительность                        : 2 ч. 26 м.
Вид битрейта                             : Постоянный
Битрейт                                  : 1509 Кбит/сек
Каналы                                   : 6 каналов
Расположение каналов                     : Front: L C R, Side: L R, LFE
Частота                                  : 48,0 КГц
Битовая глубина                          : 24 бит
Метод сжатия                             : С потерями
Размер потока                            : 1,54 Гбайт (13%)
Заголовок                                : Оригинальный
Язык                                     : English
Default                                  : Нет
Forced                                   : Нет

Текст #1
Идентификатор                            : 4
Формат                                   : UTF-8
Идентификатор кодека                     : S_TEXT/UTF8
Идентификатор кодека/Информация          : UTF-8 Plain Text
Заголовок                                : Russian
Язык                                     : Russian
Default                                  : Нет
Forced                                   : Нет

Текст #2
Идентификатор                            : 5
Формат                                   : UTF-8
Идентификатор кодека                     : S_TEXT/UTF8
Идентификатор кодека/Информация          : UTF-8 Plain Text
Заголовок                                : English
Язык                                     : English
Default                                  : Нет
Forced                                   : Нет

Текст #3
Идентификатор                            : 6
Формат                                   : UTF-8
Идентификатор кодека                     : S_TEXT/UTF8
Идентификатор кодека/Информация          : UTF-8 Plain Text
Заголовок                                : English (SDH)
Язык                                     : English
Default                                  : Нет
Forced                                   : Нет

Меню
00:00:00.000                             : en:00:00:00.000
00:11:24.684                             : en:00:11:24.684
00:16:48.049                             : en:00:16:48.049
00:25:38.078                             : en:00:25:38.078
00:35:51.649                             : en:00:35:51.649
00:44:22.576                             : en:00:44:22.576
00:52:12.921                             : en:00:52:12.921
01:01:11.376                             : en:01:01:11.376
01:08:12.213                             : en:01:08:12.213
01:16:48.938                             : en:01:16:48.938
01:22:39.663                             : en:01:22:39.663
01:29:21.731                             : en:01:29:21.731
01:40:43.913                             : en:01:40:43.913
01:50:47.766                             : en:01:50:47.766
02:02:46.984                             : en:02:02:46.984
02:09:58.958                             : en:02:09:58.958


Золотой глобус, 2014 год

Номинации (1):

*** Лучшая песня — «Atlas»

Премия канала «MTV», 2014 год

Победитель (3):

*** Лучший фильм
*** Лучшая мужская роль (Джош Хатчерсон)
*** Лучшая женская роль (Дженнифер Лоуренс)

Номинации (4):

*** Лучший злодей (Дональд Сазерленд)
*** Лучшее исполнение роли без рубашки (Сэм Клафлин)
*** Лучшее экранное перевоплощение (Элизабет Бэнкс)
*** Лучшая драка

Жорж, 2014 год

Номинации (2):

*** Лучший зарубежный экшн
*** Лучшая зарубежная драма

Сатурн, 2014 год

Победитель (1):

*** Лучшие костюмы

Номинации (6):

*** Лучшая актриса (Дженнифер Лоуренс)
*** Лучшая актриса второго плана (Джена Мэлоун)
*** Лучший режиссер (Френсис Лоуренс)
*** Лучший монтаж
*** Лучший научно-фантастический фильм
*** Лучшие декорации

*** Фильм снят по мотивам романа Сьюзен Коллинз «И вспыхнет пламя» (Catching Fire, 2009).

*** Съёмки фильма начались 10 сентября 2012 в Атланте. После Атланты съёмки переместились на Гавайи и закончились они в декабре 2012 года.

*** Некоторые сцены Капитолия были сняты в отеле Atlanta Marriott Marquis, это один из отелей, где проходит ежегодный съезд «Dragon*con».

*** На место режиссёра рассматривались Дэвид Кроненберг, Альфонсо Куарон, Алехандро Гонсалес Иньярриту и Беннетт Миллер.

*** Тейлор Китч, Арми Хаммер, Хантер Пэрриш, Грант Гастин, Джои Грэйсфа, Люк Митчелл и Гаррет Хедлунд рассматривались на роль Финника Одэйра. В итоге роль досталась Сэму Клафлину.

*** Зои Аггелики и Миа Васиковска рассматривались на роль Джоанны Мэйсон прежде чем она досталась Джене Мэлоун.

*** Мелисса Лео рассматривалась на роль Мэгз.

*** Во время съемок на арене Дженнифер Лоуренс ударила себя луком на бегу и нырнула в бассейн, из-за чего она частично оглохла на 6 дней.
*** Всего участников голодных игр — 24, которых выбирают из 25 победителей прошлых игр. В первой части говорилось, что большинство победителей было из дистрикта 1, но на юбилейных получилось так, что в каждом из дистриктов выиграло по женщине и мужчине.

*** Когда телеведущий Цезарь приглашает Китнисс на интервью, в течении которого ее свадебное платье превращается в платье сойки-пересмешницы и в тот момент, когда нам первый раз показывают трибутов попарно стоящих на сцене за спинами Цезаря и Китнисс, их 21 хотя должно быть 22, по 2 трибута на 11 уже вышедших дистриктов. Не хватает Джоанны Мейсонн. Она желала удачи Китнисс перед выходом на сцену. Но и тут неувязка: Джоанна уже давно должна была стоять на сцене, так как она трибут 7-го дистрикта, и ее выход должен был быть под номером 13.

*** Кот сестры Китнисс, который появляется в кадре в самом начале в Деревне Победителей — рыжий, хотя в первой части фильма был показан серый кот.

*** Ближе к концу сцены, в которой герои убегают от обезьян, у Китнисс заканчиваются стрелы в колчане. В следующей сцене на берегу колчан полон стрел.
Скриншоты:

Время раздачи: 24/7 до 5-ти скачавших, затем по мере возможностиpb.wtf



Скачать Голодные игры. Дилогия через торрент http://i5.imageban.ru/out/2014/12/10/7d4d901843a6e8ff1d8d3783cda0a323.png Скачать, смотреть онлайн Голодные игры. Дилогия бесплантно в хорошем качестве Описание фильма: Будущее. Деспотичное государство ежегодно устраивает показательные игры на выживание, за которыми в прямом эфире следит ... 8.6 10 8
Info! Золотая раздача, скачанное не засчитывается.
Торрент: Зарегистрирован [2014-12-10 16:55] · скачан: 141 раз
Статус: √ проверено
Размер: 22 GB
Как cкачать? Как скачать Голодные игры. Дилогия через торрент | UTorrent

% Раздел Тема Автор DL S | L
Сборники на DVD и Сиквелы [DVDrip, WEB-DLRip, HDrip, BDRip] [ 7.45 GB ] Голодные игры: Дилогия / The Hunger Games: Dilogy [2012-2013 BDRip-AVC] DUB+AVO+ GEKADOL Скачать
1 | 0


Последний раз редактировалось: Kavasar (2014-12-11 01:16), всего редактировалось 1 раз

28-11-2019 20:33  

Отключить всю рекламу на сайте

10-12-2014 22:31 Голодные игры. Дилогия Скачать торрент  

Оба релиза клубные. Укажите это вставив кнопку клуба

Код:

http://i65.fastpic.ru/big/2014/0905/87/ed4f0d504926fc08614613ab8b476d87.gif

pb.wtf



04-01-2018 13:04 Голодные игры. Дилогия Скачать торрент  

Ждём пополнения раздачи )) Спасибо pb.wtf



    Дорогой пользователь! Огромная просьба, поблагодарите релизера, оцените раздачу и оставьте свои комментарий, если Вы скачали Голодные игры. Дилогия через торрент бесплатно!
    Комментировать посты могут только пользователи прошедшие не сложную регистрацию
    Показать сообщения:    

    Голодные игры. Дилогия через торрент
    Скачать бесплатно Голодные игры. Дилогия
    Голодные игры. Дилогия скачать торрент
    Голодные игры. Дилогия смотреть онлайн
    Cкачать фильм Голодные игры. Дилогия бесплатно
    Голодные игры. Дилогия скачать торрент в хорошем качестве
    Голодные игры. Дилогия смотреть онлайн бесплатно в хорошем качестве


    Вы не можете начинать темы
    Вы не можете отвечать на сообщения
    Вы не можете редактировать свои сообщения
    Вы не можете удалять свои сообщения
    Вы не можете голосовать в опросах
    Вы не можете прикреплять файлы к сообщениям
    Вы можете скачивать файлы