2 сезон

iTunes

MVO

1

2 сезон

iTunes

iTunes

1 сезон

RePack

30

Ultimate

ВАЖНО

ИГРА 18+

pack

RePack

MK11
pack

Легкие деньги

RePack

jed

RePack

fifa19

RePack

RDR2

RePack

NEED FOR SPEED™ PAYBACK

4 сезон

9 сезон

Бесстыжие 9 сезон

Все сериалы

все сериалы на PB.wtf

RePack

FAR CRY 5

Anonymous, доброе утро, мы не успеваем собрать деньги на оплату серверов за декабрь и январь, помогите нам пожалуйста в это трудное время. В качестве благодарности мы отключим Вам всю рекламу на сайте (укажите свой ник в строку Ваше имя)!

×
  
Magnet ссылка

Славные ублюдки / Les salauds (Клер Дени / Claire Denis) [2013, Франция, Германия, драма, HDRip, Профессиональный многоголосый] pb.wtf

Славные ублюдки через торрент pb.wtf

Размер: 1.46 GB | Добавлен: 6 лет 1 мес. назад | Торрент скачан:178 раз
Скачать  

11-12-2014 01:47 Славные ублюдки Скачать торрент  

Славные ублюдки / Les salauds

Год выпуска: 2013
Страна: Франция, Германия
Жанр: драма
Продолжительность: 01:40:11
Перевод: Профессиональный многоголосый
Субтитры: Отсутствует
Режиссер: Клер Дени / Claire Denis
В ролях:


Венсан Линдон (Marco Silvestri), Кьяра Мастроянни (Raphaëlle), Джули Батай (Sandra), Мишель Сюбор (Edouard Laporte), Лола Кретон (Justine), Алекс Дека (Dr. Béthanie), Грегуар Колен (Xavier), Флоранс Луаре (Elysée), Кристоф Миоссек (Guy), Элен Фийер (Banker), Эрик Дюпон-Моретти (Lawyer), Шарунас Бартас (L'armateur étranger)

Описание:
Племянница Марко Сильвестри насильно отправлена в психиатрическую лечебницу, его бизнес уничтожен, сестра Сандра в полном отчаянии. В том, что случилось с их семьей, Сандра обвиняет известного дельца Эдуарда Лапорта. Марко намерен нанести ответный удар - он отправляется к любовнице Лапорта Рафаэль...

Рейтинг:

Качество: HDRip
Формат: AVI
Видео кодек:XviD
Аудио кодек:AC3
Видео: XviD, 720x384 (1.875), 1882 kbps, 24 fps, 0,284 bpp
Аудио: AC3 / 2.0 / 48 kHz / 192 kbps / 16 bit

General
Complete name : D:\Users\_KaisiK_\uTorrent\КИНО\Slavnye.ybludki.2013.P.HDRip.avi
Format : AVI
Format/Info : Audio Video Interleave
File size : 1.46 GiB
Duration : 1h 40mn
Overall bit rate : 2 083 Kbps
Writing application : VirtualDubMod 1.5.10.2 (build 2540/release)
Writing library : VirtualDubMod build 2540/release

Video
ID : 0
Format : MPEG-4 Visual
Format profile : Advanced Simple@L5
Format settings, BVOP : 2
Format settings, QPel : No
Format settings, GMC : No warppoints
Format settings, Matrix : Default (MPEG)
Codec ID : XVID
Codec ID/Hint : XviD
Duration : 1h 40mn
Bit rate : 1 882 Kbps
Width : 720 pixels
Height : 384 pixels
Display aspect ratio : 1.875
Frame rate : 24.000 fps
Color space : YUV
Chroma subsampling : 4:2:0
Bit depth : 8 bits
Scan type : Progressive
Compression mode : Lossy
Bits/(Pixel*Frame) : 0.284
Stream size : 1.32 GiB (90%)
Writing library : XviD 1.2.1 (UTC 2008-12-04)

Audio
ID : 1
Format : AC-3
Format/Info : Audio Coding 3
Mode extension : CM (complete main)
Codec ID : 2000
Duration : 1h 39mn
Bit rate mode : Constant
Bit rate : 192 Kbps
Channel(s) : 2 channels
Channel positions : Front: L R
Sampling rate : 48.0 KHz
Bit depth : 16 bits
Compression mode : Lossy
Stream size : 137 MiB (9%)
Alignment : Split accross interleaves
Interleave, duration : 42 ms (1.00 video frame)
Interleave, preload duration : 500 ms

[/code]
pb.wtf



Скачать Славные ублюдки через торрент http://i68.fastpic.ru/big/2014/1211/d2/aa923a02738518799ab310e8976a4cd2.png Скачать фильм Славные ублюдки через торрент бесплантно в хорошем качестве Описание: Племянница Марко Сильвестри насильно отправлена в психиатрическую лечебницу, его бизнес уничтожен, сестра Сандра в полном ... 10 10 8
Торрент: Зарегистрирован [2014-12-11 01:47] · скачан: 178 раз
Статус: √ проверено
Размер: 1.46 GB
Как cкачать? Как скачать Славные ублюдки через торрент | UTorrent

% Раздел Тема Автор DL S | L
T Арт-хаус и авторское кино [ 1.45 GB ] Славные ублюдки / Les salauds [2013 Германия WEB-DLRip Любительский [Гундос] GEKADOL Скачать
1 | 0

28-11-2019 20:33  

Отключить всю рекламу на сайте

    Дорогой пользователь! Огромная просьба, поблагодарите релизера, оцените раздачу и оставьте свои комментарий, если Вы скачали Славные ублюдки через торрент бесплатно! Внесите свою лепту в развитие PiratBit!
    Комментировать посты могут только пользователи прошедшие не сложную регистрацию
    Показать сообщения:    

    Славные ублюдки через торрент
    Скачать бесплатно Славные ублюдки
    Славные ублюдки скачать торрент
    Славные ублюдки смотреть онлайн
    Cкачать фильм Славные ублюдки бесплатно
    Славные ублюдки скачать торрент в хорошем качестве
    Славные ублюдки смотреть онлайн бесплатно в хорошем качестве


    Вы не можете начинать темы
    Вы не можете отвечать на сообщения
    Вы не можете редактировать свои сообщения
    Вы не можете удалять свои сообщения
    Вы не можете голосовать в опросах
    Вы не можете прикреплять файлы к сообщениям
    Вы можете скачивать файлы