Всегда рабочее зеркало без VPN и Proxy просто перед .vidak.icu напиши любое слово или цифру, Пример http://3fx1.vidak.icu

MVO

MVO

1 сезон

1

1 сезон

iTunes

1 сезон

13

1 сезон

Deluxe

pack

Рекомендуем

Repack

30

ВАЖНО

RePack

MK11

RePack

jed

RePack

fifa19

RePack

RDR2

RePack

NEED FOR SPEED™ PAYBACK

Кинопоиск HD

6 сезон

 Острые козырьки 6 сезон

Все сериалы

все сериалы на PB.wtf

RePack

FAR CRY 5
  
Magnet ссылка

Звездный крейсер: Восстание / Starship: Rising (Нил Джонсон / Neil Johnson) [2014, США, фантастика, боевик, DVDRip, Любительский (одноголосый)] pb.wtf

Звездный крейсер: Восстание через торрент pb.wtf

Размер: 1.41 GB | Добавлен: 7 лет 7 мес. назад | Торрент скачан:691 раз
Смотреть онлайн Звездный крейсер: Восстание | Скачать    Ребята, помогите собрать деньги на оплату серверов!!!

11-12-2014 04:29 Звездный крейсер: Восстание Скачать торрент  

Звездный крейсер: Восстание / Starship: Rising

Год выпуска: 2014
Страна: США
Жанр: фантастика, боевик
Продолжительность: 01:29:41
Перевод: Любительский (одноголосый) [den904]
Субтитры: Отсутствует
Режиссер: Нил Джонсон / Neil Johnson
В ролях:


Даррен Джейкобс (John Worthy), Emii (Jolli), Брук Льюис (Staris), Клодия Уэллс (Captain Savage), Э.Дж. Де Ла Пена (Torgus), Ральф Гуццо (General Gustav), Райиа Бароуди (Czarina), Мэрилин Гильотти (Xarsis), Кристина Моусес (Diana), Линн Айала (Marta), Брек Галлини (Seethus), Christian Anderson (Drayson)

Описание:
Звездный крейсер 1 - самый мощный корабль Федерации, способный разрушать целые миры. После получения приказа об уничтожении Земли, лейтенант Джон Уорти поднимает бунт на корабле и бросает вызов мощи Федерации.

Рейтинг:
Бюджет: $3 000 000
Качество: DVDRip
Формат: AVI
Видео кодек:XviD
Аудио кодек:AC3
Видео: XviD, 720x384 (1.875), 1596 kbps, 23,976 fps, 0,241 bpp
Аудио №1: AC3 / 5.1 / 48 kHz / 448 kbps / 16 bit - Любительский (одноголосый) [den904]
Аудио №2: AC3 / 2.0 / 48 kHz / 192 kbps / 16 bit - (оригинал)


General
Complete name : D:\Users\_KaisiK_\uTorrent\КИНО\Starship.Rising.2014.DVDRip.CINEMANIA.avi
Format : AVI
Format/Info : Audio Video Interleave
File size : 1.41 GiB
Duration : 1h 29mn
Overall bit rate : 2 251 Kbps
Movie name : RARBG.COM - Starship.Rising.2014.DVDRip.XviD.AC3-RARBG
Writing application : VirtualDubMod 1.5.10.2 (build 2542/release)
Writing library : VirtualDubMod build 2542/release
Comment : RARBG.COM - Starship.Rising.2014.DVDRip.XviD.AC3-RARBG

Video
ID : 0
Format : MPEG-4 Visual
Format profile : [email protected]
Format settings, BVOP : No
Format settings, QPel : No
Format settings, GMC : No warppoints
Format settings, Matrix : Default (H.263)
Codec ID : XVID
Codec ID/Hint : XviD
Duration : 1h 29mn
Bit rate : 1 597 Kbps
Width : 720 pixels
Height : 384 pixels
Display aspect ratio : 1.875
Frame rate : 23.976 fps
Color space : YUV
Chroma subsampling : 4:2:0
Bit depth : 8 bits
Scan type : Progressive
Compression mode : Lossy
Bits/(Pixel*Frame) : 0.241
Stream size : 1.00 GiB (71%)
Writing library : Lavc55.61.100

Audio #1
ID : 1
Format : AC-3
Format/Info : Audio Coding 3
Mode extension : CM (complete main)
Codec ID : 2000
Duration : 1h 29mn
Bit rate mode : Constant
Bit rate : 448 Kbps
Channel(s) : 6 channels
Channel positions : Front: L C R, Side: L R, LFE
Sampling rate : 48.0 KHz
Bit depth : 16 bits
Compression mode : Lossy
Stream size : 287 MiB (20%)
Alignment : Split accross interleaves
Interleave, duration : 42 ms (1.00 video frame)
Interleave, preload duration : 500 ms

Audio #2
ID : 2
Format : AC-3
Format/Info : Audio Coding 3
Mode extension : CM (complete main)
Codec ID : 2000
Duration : 1h 29mn
Bit rate mode : Constant
Bit rate : 192 Kbps
Channel(s) : 2 channels
Channel positions : Front: L R
Sampling rate : 48.0 KHz
Bit depth : 16 bits
Compression mode : Lossy
Stream size : 123 MiB (9%)
Alignment : Split accross interleaves
Interleave, duration : 42 ms (1.00 video frame)
Interleave, preload duration : 500 ms

[/code]
pb.wtf



Скачать Звездный крейсер: Восстание через торрент http://i65.fastpic.ru/big/2014/1211/7c/a44b4dc7e635483b613eb6d2c5753a7c.png Скачать, смотреть онлайн Звездный крейсер: Восстание бесплантно в хорошем качестве Описание: Звездный крейсер 1 - самый мощный корабль Федерации, способный разрушать целые миры. После получения приказа об уничтожении ... 9.1 10 19
Торрент: Зарегистрирован [2014-12-11 04:29] · скачан: 691 раз
Статус: T временная
Размер: 1.41 GB
Как cкачать? Как скачать Звездный крейсер: Восстание через торрент | UTorrent

28-11-2019 20:33  

Отключить вcю реклaмy на сайте

11-12-2014 05:01 Звездный крейсер: Восстание Скачать торрент  

IMDB рейтинг: 3.5 спасибо я пас :)pb.wtf



11-12-2014 05:42 Звездный крейсер: Восстание Скачать торрент  

смотрел трейлер! Ужас!!!!!!pb.wtf



11-12-2014 05:54 Звездный крейсер: Восстание Скачать торрент  

особенно прикольно что оригинал стерео, а русский 6ти канальный :)pb.wtf



11-12-2014 05:54 Звездный крейсер: Восстание Скачать торрент  

...я так понимаю "порно"....!? :jest3:pb.wtf



11-12-2014 06:14 Звездный крейсер: Восстание Скачать торрент  

Sent_O писал(а):

...я так понимаю "порно"....!? :jest3:

за 3 зеленых ляма можно 100% снять только порно sarcasticpb.wtf



11-12-2014 11:02 Звездный крейсер: Восстание Скачать торрент  

Это брэд)pb.wtf



11-12-2014 18:51 Звездный крейсер: Восстание Скачать торрент  

Полный дебилизьм.
И под конец пообещали продолжение.pb.wtf



12-12-2014 19:14 Звездный крейсер: Восстание Скачать торрент  

Хрень дешёвая всё: и игра актёров, и сценарий, и съёмки... На уровне деревенской самодеятельности!pb.wtf



12-12-2014 22:42 Звездный крейсер: Восстание Скачать торрент  

Все снимали негры ночью за МКАДомpb.wtf



14-12-2014 08:50 Звездный крейсер: Восстание Скачать торрент  

А я посмотрю!pb.wtf



    Дорогой пользователь! Огромная просьба, поблагодарите релизера, оцените раздачу и оставьте свои комментарий, если Вы скачали Звездный крейсер: Восстание через торрент бесплатно!
    Комментировать посты могут только пользователи прошедшие не сложную регистрацию
    Показать сообщения:    

    Звездный крейсер: Восстание через торрент
    Скачать бесплатно Звездный крейсер: Восстание
    Звездный крейсер: Восстание скачать торрент
    Звездный крейсер: Восстание смотреть онлайн
    Cкачать фильм Звездный крейсер: Восстание бесплатно
    Звездный крейсер: Восстание скачать торрент в хорошем качестве
    Звездный крейсер: Восстание смотреть онлайн бесплатно в хорошем качестве


    Вы не можете начинать темы
    Вы не можете отвечать на сообщения
    Вы не можете редактировать свои сообщения
    Вы не можете удалять свои сообщения
    Вы не можете голосовать в опросах
    Вы не можете прикреплять файлы к сообщениям
    Вы можете скачивать файлы