Ссылка на приватное зеркало нашего сайта всего за 1$. Внимание количество ограничено!!!

2 сезон

iTunes

1 сезон

1

2 сезон

2 сезон

iTunes

1 сезон

RePack

30

Ultimate

ВАЖНО

ИГРА 18+

pack

RePack

MK11
pack

Забери бонус

RePack

jed

!!Акция!!

Alien_Rage

RePack

fifa19

RePack

Assassins Creed: Odyssey

RePack

NEED FOR SPEED™ PAYBACK

4 сезон

9 сезон

Бесстыжие 9 сезон

Все сериалы

все сериалы на PB.wtf

RePack

FAR CRY 5
  

Вегас / Vegas / Сезон: 1 / Серии 1-21 из 21 (Мэтт Эрл Бисли, Дуан Кларк, Роксанн Доусон) [2012 г., боевик, драма, криминал, детектив, WEB-DLRip] MVO(NewStudio) +Original pb.wtf

Вегас через торрент pb.wtf

Размер: 16.97 GB | Добавлен: 5 лет 11 мес. назад | Торрент скачан:73 раза
Скачать  

11-12-2014 07:17 Вегас Скачать торрент  

Вегас / Vegas
Год выпуска: 2012
Страна: США
Жанр: боевик, драма, криминал, детектив
Продолжительность: ~00:45:00 (Серия)
Перевод: Профессиональный многоголосый (NewStudio)

Режиссер: Мэтт Эрл Бисли, Дуан Кларк, Роксанн Доусон



В ролях: Деннис Куэйд, Майкл Чиклис, Кэрри-Энн Мосс, Тейлор Хэндли, Джейсон О’Мара, Сара Джонс, Джеймс Руссо, Сонни Маринелли, Айми Гарсиа, Майкл Рейли Бурк

Описание: Фильм снят по реальным событиям, о ковбое по имени Ральф Лэмб, в 1960-м году ставшем главным шерифом Лас-Вегаса и прослужившем на этом посту 18 лет. При Лэмбе был сформирован полицейский департамент города. Он противостоял мафии, мото-банде «Ангелы ада» и прославился тем, что ни разу ни в кого не выстрелил.

Качество: WEB-DLRip
Формат: AVI
Видео кодек: XviD
Аудио кодек: AC3
Видео: 720x400 (16:9), 23.976 fps, 1 997 Kbps (0.289 bit/pixel)
Аудио#1: 48.0 KHz, 6 ch, 384 Kbps, CBR Rus
Аудио#2: 48.0 KHz, 6 ch, 384 Kbps, CBR Eng
Релиз : NewStudio.TV
Озвучка: Gutta, Константин Погодаев
Перевод: weirdie
Подготовка видео: Koss
Работа со звуком: Koss
01. Пилот / Pilot
02. Игра на деньги / Money Plays
03. Все, что блестит / All That Glitters
04. (Не) законный / (Il)Legitimate
05. Солидные Граждане / Solid Citizens
06. Подлинник / The Real Thing
07. Негодные зерна / Bad Seeds
08. Изобличение / Exposure
09. Маскарад / Masquerade
10. Эстинто / Estinto
11. Племя Пайютов / Paiutes
12. Начиная с сегодняшнего дня / From This Day Forward
13. Поездка за город / Road Trip
14. Третий человек / The Third Man
15. Два сапога пара / Two of a Kind
16. Мелкая рыбка / Little Fish
17. Голливудская концовка / Hollywood Ending
18. Мерзавцы / Scoundrels
19. От прошлого не уйти / Past Lives
20. Неоконченное дело / Unfinished Business
21. Сыны Невады / Sons of Nevada

Общее
Полное имя : F:\Вегас Vegas\Vegas (Сезон 1) NewStudio\Vegas.s01e01.rus.eng.avi
Формат : AVI
Формат/Информация : Audio Video Interleave
Размер файла : 902 Мбайт
Продолжительность : 45 м.
Общий поток : 2779 Кбит/сек
Программа кодирования : VirtualDubMod 1.5.10.2 (build 2540/release)
Библиотека кодирования : VirtualDubMod build 2540/release

Видео
Идентификатор : 0
Формат : MPEG-4 Visual
Профиль формата : Advanced Simple@L5
Параметр BVOP формата : 1
Параметр QPel формата : Нет
Параметр GMC формата : Без точки перехода
Параметр матрицы формата : Default (MPEG)
Идентификатор кодека : XVID
Идентификатор кодека/Подсказка : XviD
Продолжительность : 45 м.
Битрейт : 1997 Кбит/сек
Ширина : 720 пикселей
Высота : 400 пикселей
Соотношение сторон : 16:9
Частота кадров : 23,976 кадра/сек
Цветовое пространство : YUV
Субдискретизация насыщенности : 4:2:0
Битовая глубина : 8 бит
Тип развёртки : Прогрессивная
Метод сжатия : С потерями
Бит/(Пиксели*Кадры) : 0.289
Размер потока : 648 Мбайт (72%)
Библиотека кодирования : XviD 65

Аудио #1
Идентификатор : 1
Формат : AC-3
Формат/Информация : Audio Coding 3
Расширение режима : CM (complete main)
Параметр Endianness формата : Big
Идентификатор кодека : 2000
Продолжительность : 45 м.
Вид битрейта : Постоянный
Битрейт : 384 Кбит/сек
Каналы : 6 каналов
Расположение каналов : Front: L C R, Side: L R, LFE
Частота : 48,0 КГц
Битовая глубина : 16 бит
Метод сжатия : С потерями
Размер потока : 125 Мбайт (14%)
Выравнивание : Разделение по промежуткам
Продолжительность промежутка : 42 мс. (1,00 видеокадр)
Время предзагрузки промежутка : 500 мс.

Аудио #2
Идентификатор : 2
Формат : AC-3
Формат/Информация : Audio Coding 3
Расширение режима : CM (complete main)
Параметр Endianness формата : Big
Идентификатор кодека : 2000
Продолжительность : 45 м.
Вид битрейта : Постоянный
Битрейт : 384 Кбит/сек
Каналы : 6 каналов
Расположение каналов : Front: L C R, Side: L R, LFE
Частота : 48,0 КГц
Битовая глубина : 16 бит
Метод сжатия : С потерями
Размер потока : 125 Мбайт (14%)
Выравнивание : Разделение по промежуткам
Продолжительность промежутка : 42 мс. (1,00 видеокадр)
Время предзагрузки промежутка : 500 мс.


Вегас скачать торрент


pb.wtf



Скачать Вегас через торрент http://pic.kartinco.top/images/8/n7cqd.jpg Скачать фильм Вегас через торрент бесплантно в хорошем качестве Описание: Фильм снят по реальным событиям, о ковбое по имени Ральф Лэмб, в 1960-м году ставшем главным шерифом Лас-Вегаса и прослужившем на ... 10 10 11
Info! Золотая раздача, скачанное не засчитывается.
Торрент: Зарегистрирован [2014-12-11 07:17] · скачан: 73 раз
Статус: √ проверено
Размер: 16.97 GB
Как cкачать? Как скачать Вегас через торрент | qTorrent

28-11-2019 20:33  

Отключить всю рекламу на сайте

11-12-2014 17:09 Вегас Скачать торрент  

сериал неплох..неплох... чак норис возращаетьсяpb.wtf



    Дорогой пользователь! Огромная просьба, поблагодарите релизера, оцените раздачу и оставьте свои комментарий, если Вы скачали Вегас через торрент бесплатно! Внесите свою лепту в развитие PiratBit!
    Комментировать посты могут только пользователи прошедшие не сложную регистрацию
    Показать сообщения:    

    Вегас через торрент
    Скачать бесплатно Вегас
    Вегас скачать торрент
    Вегас смотреть онлайн
    Cкачать фильм Вегас бесплатно
    Вегас скачать торрент в хорошем качестве
    Вегас смотреть онлайн бесплатно в хорошем качестве


    Вы не можете начинать темы
    Вы не можете отвечать на сообщения
    Вы не можете редактировать свои сообщения
    Вы не можете удалять свои сообщения
    Вы не можете голосовать в опросах
    Вы не можете прикреплять файлы к сообщениям
    Вы можете скачивать файлы