Ссылка на приватное зеркало нашего сайта всего за 1$. Внимание количество ограничено!!!

2 сезон

iTunes

1 сезон

1

iTunes

iTunes

iTunes

1 сезон

RePack

30

ИГРА 18+

pack

ВАЖНО

!!Акция!!

Alien_RageХит недели

RePack

MK11
pack

Забери бонус

RePack

jed

!!Акция!!

Alien_Rage

RePack

fifa19

RePack

Assassins Creed: Odyssey

RePack

NEED FOR SPEED™ PAYBACK

4 сезон

9 сезон

Бесстыжие 9 сезон

Все сериалы

все сериалы на PB.wtf

RePack

FAR CRY 5
  

Красивая жизнь / Сезон: 1 / Серии 1-20 из 20 (Александр Замятин) [2014, Россия, мелодрама, HDTVRip) pb.wtf

Красивая жизнь через торрент pb.wtf

Размер: 10.75 GB | Добавлен: 5 лет 10 мес. назад | Торрент скачан:486 раз
Скачать  

11-12-2014 09:29 Красивая жизнь Скачать торрент  

Красивая жизнь


  • Год выпуска: 2014
  • Страна: Россия
  • Жанр: мелодрама
  • Продолжительность: 00:45:21 (Серия)
  • Перевод: Не требуется

  • Режиссер: Александр Замятин
  • В ролях:

    Марина Митрофанова (Ирина), Евгений Шириков (Юра), Кирилл Жандаров (Саша), Агата Муцениеце (Жанна), Екатерина Дубакина (Ксюша), Любава Грешнова (Юля), Наталья Чернявская (Светлана Петровна Субботина), Владислав Ветров (Алексей Николаевич Субботин), Мартиньш Вилсонс (Гийом), Валерий Афанасьев (отец Юры), Елена Цыплакова (мама Юры), Владимир Стержаков (Леонид)

  • Описание:
    Москва, 1988 год. На дне рождения своей подруги Ирина - "студентка, комсомолка и просто красавица" - знакомится с Юрой. Молодые люди влюбляются друг в друга с первого взгляда. Однако на пути их романа встают бывшие друзья: подруга Иры – капризная дочь влиятельных родителей Жанна Верхоланцева - испытывает сильные чувства к Юре, а ее брат и лучший друг Юры Саша Верхоланцев пылает страстью к Ирине.Чтобы устранить соперника, Саша просит своего отца выслать Юру из Москвы. В итоге Юра попадает в Афганистан. А вскоре Жанна становится виновницей автомобильной аварии, в которой серьезно страдает мать Ирины.Единственный шанс спасти мать - найти деньги на сложную и опасную операцию. Однако собрать такую огромную сумму Ирине и ее отцу оказывается не под силу. У Ирины остается все меньше времени, а неприятности, проблемы и долги накапливаются как снежный ком. Сложным положением девушки решает воспользоваться оскорбленный отказом Саша...
  • Рейтинг:



  • Качество: HDTVRip
  • Формат: :AVI
  • Видео кодек: XviD
  • Аудио кодек: AC3
  • Видео: 720x400 (16:9), 1493 kbps, 25 fps, 0,207 bpp
  • Аудио: 2.0 / 48 kHz / 192 kbps / 16 bit
  • Релиз от: GEKADOL

    Код:

    General
    Complete name                            : D:\Фильмы\Красивая.жизнь.2014.HDTVRip.RG.Russkie.serialy.&.Files-x\20.Красивая.жизнь.2014.HDTVRip.RG.Russkie.serialy.&.Files-x.avi
    Format                                   : AVI
    Format/Info                              : Audio Video Interleave
    File size                                : 550 MiB
    Duration                                 : 45mn 21s
    Overall bit rate                         : 1 697 Kbps
    Writing application                      : Lavf53.19.0

    Video
    ID                                       : 0
    Format                                   : MPEG-4 Visual
    Format profile                           : Advanced Simple@L5
    Format settings, BVOP                    : 1
    Format settings, QPel                    : No
    Format settings, GMC                     : No warppoints
    Format settings, Matrix                  : Custom
    Codec ID                                 : XVID
    Codec ID/Hint                            : XviD
    Duration                                 : 45mn 21s
    Bit rate                                 : 1 494 Kbps
    Width                                    : 720 pixels
    Height                                   : 400 pixels
    Display aspect ratio                     : 16:9
    Frame rate                               : 25.000 fps
    Color space                              : YUV
    Chroma subsampling                       : 4:2:0
    Bit depth                                : 8 bits
    Scan type                                : Progressive
    Compression mode                         : Lossy
    Bits/(Pixel*Frame)                       : 0.207
    Stream size                              : 485 MiB (88%)
    Writing library                          : XviD 73

    Audio
    ID                                       : 1
    Format                                   : AC-3
    Format/Info                              : Audio Coding 3
    Mode extension                           : CM (complete main)
    Codec ID                                 : 2000
    Duration                                 : 45mn 21s
    Bit rate mode                            : Constant
    Bit rate                                 : 192 Kbps
    Channel(s)                               : 2 channels
    Channel positions                        : Front: L R
    Sampling rate                            : 48.0 KHz
    Bit depth                                : 16 bits
    Compression mode                         : Lossy
    Stream size                              : 62.3 MiB (11%)
    Alignment                                : Aligned on interleaves
    Interleave, duration                     : 32 ms (0.80 video frame)


    Скриншоты:



    pb.wtf



  • Скачать Красивая жизнь через торрент http://i68.fastpic.ru/big/2014/1211/eb/cc2a342d8d4a2ded3a1a88072a51a0eb.jpg Скачать фильм Красивая жизнь через торрент бесплантно в хорошем качестве Описание: Москва, 1988 год. На дне рождения своей подруги Ирина - "студентка, комсомолка и просто красавица" - знакомится с Юрой. Молодые ... 9.2 10 12
    Info! Золотая раздача, скачанное не засчитывается.
    Торрент: Зарегистрирован [2014-12-11 09:29] · скачан: 486 раз
    Статус: √ проверено
    Размер: 10.75 GB
    Как cкачать? Как скачать Красивая жизнь через торрент | qTorrent

    28-11-2019 20:33  

    Отключить всю рекламу на сайте

      Дорогой пользователь! Огромная просьба, поблагодарите релизера, оцените раздачу и оставьте свои комментарий, если Вы скачали Красивая жизнь через торрент бесплатно! Внесите свою лепту в развитие PiratBit!
      Комментировать посты могут только пользователи прошедшие не сложную регистрацию
      Показать сообщения:    

      Красивая жизнь через торрент
      Скачать бесплатно Красивая жизнь
      Красивая жизнь скачать торрент
      Красивая жизнь смотреть онлайн
      Cкачать фильм Красивая жизнь бесплатно
      Красивая жизнь скачать торрент в хорошем качестве
      Красивая жизнь смотреть онлайн бесплатно в хорошем качестве


      Вы не можете начинать темы
      Вы не можете отвечать на сообщения
      Вы не можете редактировать свои сообщения
      Вы не можете удалять свои сообщения
      Вы не можете голосовать в опросах
      Вы не можете прикреплять файлы к сообщениям
      Вы можете скачивать файлы