Всегда рабочее зеркало без VPN и Proxy просто перед .vidak.icu напиши любое слово или цифру, Пример http://8edl.vidak.icu

MVO

2 сезон

2 сезон

1

1 сезон

iTunes

2 сезон

13

1 сезон

Deluxe

pack

Рекомендуем

Пиратка

30

ВАЖНО

RePack

MK11

RePack

jed

RePack

fifa19

RePack

RDR2

RePack

NEED FOR SPEED™ PAYBACK

Кинопоиск HD

6 сезон

 Острые козырьки 6 сезон

Все сериалы

все сериалы на PB.wtf

RePack

FAR CRY 5

Anonymous, нам критически не хватает 5601 руб. на оплату серверов и переферии за Апрель, помоги нам пожалуйста, вся надежда только на тебя. В благодарность мы отключим тебе всю рекламу на сайте!

×
  
Magnet ссылка

Бабадук / The Babadook (Дженнифер Кент) [2014 г., Драма, Триллер, Ужасы, WEB-DLRip, Оригинал] pb.wtf

Бабадук через торрент pb.wtf

Размер: 1.43 GB | Добавлен: 7 лет 6 мес. назад | Торрент скачан:63 раза
Смотреть онлайн Бабадук | Скачать    Ребята, помогите собрать деньги на оплату серверов!!!

31-10-2014 20:01 Бабадук Скачать торрент  

Бабадук / The Babadook
Год выпуска: 2014
Страна: Австралия / Causeway Films, Smoking Gun Productions
Жанр: Драма, Триллер, Ужасы
Продолжительность: 01:33:33
Перевод: отсутствует - Оригинал
Субтитры: отсутствуют

Режиссер: Дженнифер Кент
Продюссер: Кристина Кейтон, Джен Чэпман, Джефф Харрисон
Сценарий: Дженнифер Кент

Премьера в мире: 17 января 2014





В ролях: Эсси Дэвис, Noah Wiseman, Дэниэл Хеншэлл, Хейли МакЭлхинни, Barbara West, Benjamin Winspear, Кэти Адамек, Крэйг Бехенна, Адам Морган, Пета Лонг

Описание: Овдовевшую женщину с шестилетним сыном начинает преследовать монстр Бабадук — герой из рассказов-ужасов. Поначалу нервное и странное поведение матери и сына кажется объяснимым для окружающих — без мужской поддержки прожить им сложно. Но вскоре открываются истинные причины, ведь по ночам к ним является Бабадук, чтобы напугать до смерти…

Качество: WEB-DLRip
Формат: AVI
Видео кодек: XviD
Аудио кодек: AC3
Видео: 1794 Кбит/сек, 720х304, 23,976 кадра/сек
Аудио: 384 Кбит/сек, 6 каналов, 48,0 КГц - английский






Формат : AVI
Формат/Информация : Audio Video Interleave
Размер файла : 1,43 Гбайт
Продолжительность : 1 ч. 33 м.
Общий поток : 2187 Кбит/сек
Библиотека кодирования : VirtualDub build 32593/release

Видео
Идентификатор : 0
Формат : MPEG-4 Visual
Профиль формата : Advanced Simple@L5
Параметр BVOP формата : 2
Параметр QPel формата : Нет
Параметр GMC формата : Без точки перехода
Параметр матрицы формата : Default (H.263)
Режим смешивания : Сжатый битовый поток
Идентификатор кодека : XVID
Идентификатор кодека/Подсказка : XviD
Продолжительность : 1 ч. 33 м.
Битрейт : 1794 Кбит/сек
Ширина : 720 пикселей
Высота : 304 пикселя
Соотношение сторон : 2,35:1
Частота кадров : 23,976 кадра/сек
Цветовое пространство : YUV
Субдискретизация насыщенности : 4:2:0
Битовая глубина : 8 бит
Тип развёртки : Прогрессивная
Метод сжатия : С потерями
Бит/(Пиксели*Кадры) : 0.342
Размер потока : 1,17 Гбайт (82%)
Библиотека кодирования : XviD 64

Аудио
Идентификатор : 1
Формат : AC-3
Формат/Информация : Audio Coding 3
Расширение режима : CM (complete main)
Параметр Endianness формата : Big
Идентификатор кодека : 2000
Продолжительность : 1 ч. 33 м.
Вид битрейта : Постоянный
Битрейт : 384 Кбит/сек
Каналы : 2 канала
Расположение каналов : Front: L R
Частота : 48,0 КГц
Битовая глубина : 16 бит
Метод сжатия : С потерями
Размер потока : 257 Мбайт (18%)
Выравнивание : Соединение по промежуткам
Продолжительность промежутка : 42 мс. (1,00 видеокадр)
Время предзагрузки промежутка : 512 мс.


Бабадук The Babadook 2014 скачать торрент


pb.wtf



Скачать Бабадук через торрент http://i65.fastpic.ru/big/2014/1031/b7/fc7bf0797acf1bdba2f3161c0dbd9bb7.png Скачать, смотреть онлайн Бабадук бесплантно в хорошем качестве Описание: Овдовевшую женщину с шестилетним сыном начинает преследовать монстр Бабадук — герой из рассказов-ужасов. Поначалу нервное и ... 10 10 7
Торрент: Зарегистрирован [2014-10-31 20:01] · скачан: 63 раз
Статус: √ проверено
Размер: 1.43 GB
Как cкачать? Как скачать Бабадук через торрент | UTorrent

% Раздел Тема Автор DL S | L
Ultra HD (UHD: 2K, 4K, 8K) — видео сверхвысокой чёткости [ 44.93 GB ] Бабадук / The Babadook [2014 UHD BDRemux 2160p] DUB [ R5] bober100 Скачать
1 | 0
Фильмы 2014 [DVDrip, WEB-DLRip, HDrip] [ 1.46 GB ] Бабадук / The Babadook [2014 BDRip] - [] Twi7ter Скачать
2 | 0
Фильмы с авторской озвучкой [ 3.11 GB ] Бабадук / The Babadook [2014 WEB-DL 720p Авторский ] кэп Скачать
1 | 0
Фильмы [HD 720p, 1080p] (Хороший звук DUB, MVO) [ 4.48 GB ] Бабадук / The Babadook [2014 BDRip 720p [НТВ Ворон Скачать
1 | 0
Фильмы 2014 [DVDrip, WEB-DLRip, HDrip] [ 2.14 GB ] Бабадук / The Babadook [2014 BDRip-AVC от HELLYWOOD / [НТВ Ворон Скачать
1 | 0
Фильмы с авторской озвучкой [ 1.43 GB ] Бабадук / The Babadook [2014 WEB-DLRip Авторский ] makarevich Скачать
1 | 0
Фильмы с авторской озвучкой [ 744 MB ] Бабадук / The Babadook [2014 WEB-DLRip] АVO khagkfgkahgaer Скачать
1 | 0


Последний раз редактировалось: makarevich (2014-10-31 20:09), всего редактировалось 1 раз

28-11-2019 20:33  

Отключить всю рекламу на сайте

31-10-2014 20:27 Бабадук Скачать торрент  


Братья славяне!!!pb.wtf



31-10-2014 20:33 Бабадук Скачать торрент  

Все -таки залили, этот фильм. sarcasticpb.wtf



31-10-2014 21:04 Бабадук Скачать торрент  

опа, бабаЙдук пришел sarcasticpb.wtf



01-11-2014 06:18 Бабадук Скачать торрент  

У нас в некоторых семьях тоже деток пугают Бабайкой.
Будешь плохо себя вести, придёт за тобой pb.wtf



    Дорогой пользователь! Огромная просьба, поблагодарите релизера, оцените раздачу и оставьте свои комментарий, если Вы скачали Бабадук через торрент бесплатно!
    Комментировать посты могут только пользователи прошедшие не сложную регистрацию
    Показать сообщения:    

    Бабадук через торрент
    Скачать бесплатно Бабадук
    Бабадук скачать торрент
    Бабадук смотреть онлайн
    Cкачать фильм Бабадук бесплатно
    Бабадук скачать торрент в хорошем качестве
    Бабадук смотреть онлайн бесплатно в хорошем качестве


    Вы не можете начинать темы
    Вы не можете отвечать на сообщения
    Вы не можете редактировать свои сообщения
    Вы не можете удалять свои сообщения
    Вы не можете голосовать в опросах
    Вы не можете прикреплять файлы к сообщениям
    Вы можете скачивать файлы