Всегда рабочее зеркало просто перед .vidak.icu напиши любое слово или цифру, Пример http://xlo.vidak.icu

>

7.4

iTunes

7.4

2 сезон

9.4

1 сезон

1

7.4

2 сезон

7.2

iTunes

6.0

MVO

13

6.1

iTunes

8.3

Пиратка

30

ULTIMATE

pack

9.9

Лицензия

ВАЖНО

ИГРА 18+

pack

7.3

RePack

MK11

7.7

RePack

jed

7.8

RePack

fifa19

8.5

RePack

RDR2

RePack

NEED FOR SPEED™ PAYBACK

1 сезон

9 сезон

Бесстыжие 9 сезон

Все сериалы

все сериалы на PB.wtf

RePack

FAR CRY 5

Anonymous, доброй ночи, мы катастрофически не успеваем собрать деньги на оплату серверов, помогите нам пожалуйста 5,10,15р., для нас важна любая помощь . В качестве благодарности мы отключим Вам всю рекламу на сайте (укажите свой ник в строку Ваше имя)!

×
  
Magnet ссылка

Великий уравнитель / The Equalizer (Антуан Фукуа ) [2014, боевик, триллер, криминал, HDRip, Авторский (одноголосый) Есарев pb.wtf

Великий уравнитель через торрент pb.wtf

Размер: 2.05 GB | Добавлен: 7 лет 1 мес. назад | Торрент скачан:352 раза
Смотреть онлайн Великий уравнитель | Скачать    Ребята, помогите собрать деньги на оплату серверов!!!

13-12-2014 13:02 Великий уравнитель Скачать торрент  


Великий уравнитель / The Equalizer
«What do you see when you look at me?»

Год выпуска:2014
Страна: США
Жанр:боевик, триллер, криминал
Продолжительность:02:12:03
Перевод:Авторский (одноголосый)(Есарев)
Режиссер:Антуан Фукуа

  • В ролях:

    Дензел Вашингтон (Robert McCall), Мартон Чокаш (Teddy), Хлоя Грейс Морец (Teri), Дэвид Харбор (Masters), Хейли Беннетт (Mandy), Билл Пуллман (Brian Plummer), Мелисса Лео (Susan Plummer), Дэвид Мюнье (Slavi), Джонни Скуртис (Ralphie), Алекс Видов (Tevi), Владимир Кулих (Vladimir Pushkin), Э. Роджер Митчелл (Lead Investigator)
  • Описание:
    Роберт МакКолл - бывший спецназовец. После увольнения со службы он собирается начать нормальную мирную жизнь, дав себе обещание больше никогда не брать в руки оружия. Но в один прекрасный момент он встречает молодую девушку, зарабатывающую на жизнь проституцией, которую на его глазах избивают бандиты и увозят в неизвестном направлении. Тогда он решает отыскать ее, после чего вступает в неравную схватку с русской мафией и продажными агентами ЦРУ. Ради справедливости он готов нарушить собственное обещание и применить оружие против людей, которые просто не заслуживают жить в этом мире...

  • Мировая премьера:7 сентября 2014

    Качество: HDRip
    Формат:AVI
    Видео кодек: XviD
    Аудио кодек:AC3
    Видео: XviD, 720x304 (2.35:1), 1760 kbps, 23,976 fps, 0,336 bpp
    Аудио: AC3 / 5.1 / 48 kHz / 448 kbps / 16 bit


    Код:

    General
    Complete name                            : D:\Торенты\Velikyi.Uravnitel.2014.A1.HDRip.2100MB.avi
    Format                                   : AVI
    Format/Info                              : Audio Video Interleave
    Format profile                           : OpenDML
    File size                                : 2.05 GiB
    Duration                                 : 2h 12mn
    Overall bit rate                         : 2 221 Kbps
    Writing application                      : VirtualDubMod 1.5.10.2 (build 2540/release)
    Writing library                          : VirtualDubMod build 2540/release

    Video
    ID                                       : 0
    Format                                   : MPEG-4 Visual
    Format profile                           : Advanced Simple@L5
    Format settings, BVOP                    : 2
    Format settings, QPel                    : No
    Format settings, GMC                     : No warppoints
    Format settings, Matrix                  : Default (MPEG)
    Codec ID                                 : XVID
    Codec ID/Hint                            : XviD
    Duration                                 : 2h 12mn
    Bit rate                                 : 1 761 Kbps
    Width                                    : 720 pixels
    Height                                   : 304 pixels
    Display aspect ratio                     : 2.35:1
    Frame rate                               : 23.976 fps
    Color space                              : YUV
    Chroma subsampling                       : 4:2:0
    Bit depth                                : 8 bits
    Scan type                                : Progressive
    Compression mode                         : Lossy
    Bits/(Pixel*Frame)                       : 0.336
    Stream size                              : 1.62 GiB (79%)
    Writing library                          : XviD 1.2.1 (UTC 2008-12-04)

    Audio
    ID                                       : 1
    Format                                   : AC-3
    Format/Info                              : Audio Coding 3
    Mode extension                           : CM (complete main)
    Codec ID                                 : 2000
    Duration                                 : 2h 12mn
    Bit rate mode                            : Constant
    Bit rate                                 : 448 Kbps
    Channel(s)                               : 6 channels
    Channel positions                        : Front: L C R, Side: L R, LFE
    Sampling rate                            : 48.0 KHz
    Bit depth                                : 16 bits
    Compression mode                         : Lossy
    Stream size                              : 423 MiB (20%)
    Alignment                                : Split accross interleaves
    Interleave, duration                     : 42 ms (1.00 video frame)
    Interleave, preload duration             : 500 ms

    Скриншоты:

    Срочно! Нужна помощь! Жмите

    © Оформление by Ворон
    pb.wtf



  • Скачать Великий уравнитель через торрент https://pic1.kartinco.top/images/61/ordi9.jpg Скачать, смотреть онлайн Великий уравнитель бесплантно в хорошем качестве Описание:Роберт МакКолл - бывший спецназовец. После увольнения со службы он собирается начать нормальную мирную жизнь, дав себе обещание ... 9.7 10 7
    Торрент: Зарегистрирован [2014-12-13 13:02] · скачан: 352 раз
    Статус: √ проверено
    Размер: 2.05 GB
    Как cкачать? Как скачать Великий уравнитель через торрент | UTorrent

    % Раздел Тема Автор DL S | L
    Ultra HD (UHD: 2K, 4K, 8K) — видео сверхвысокой чёткости [ 26.32 GB ] Великий уравнитель 2 / The Equalizer 2 [2018 UHD BDRip 2160p] [SDR] DUB + AVO [Дмитрий Есарев] sheker187 Скачать
    1 | 0
    Фильмы [HD 720p, 1080p] (Хороший звук DUB, MVO) [ 12.25 GB ] Великий уравнитель 2 / The Equalizer 2 [2018 BDRip 1080p] DUB + AVO [Д. Есарев] sheker187 Скачать
    1 | 0
    Ultra HD (UHD: 2K, 4K, 8K) — видео сверхвысокой чёткости [ 14.37 GB ] Великий уравнитель 2 / The Equalizer 2 [2018 UHD BDRip 2160p] DUB + AVO [Дмитрий Есарев] sheker187 Скачать
    1 | 0
    Фильмы 2018 [DVDrip, WEB-DLRip, HDrip] (DUB, MVO) [ 2.98 GB ] Великий уравнитель 2 / The Equalizer 2 [2018 BDRip-AVC] AVO - ExKinoRay Enigma2010 Скачать
    1 | 0
    Фильмы (Blu-ray, BD-Remux, HDDVD) [ 24.55 GB ] Великий уравнитель 2 / The Equalizer 2 [2018 BDRemux 1080p] DUB + AVO [Д. Есарев] sheker187 Скачать
    1 | 0
    Фильмы [HD 720p, 1080p] (Хороший звук DUB, MVO) [ 7.18 GB ] Великий уравнитель 2 / The Equalizer 2 [2018 BDRip 720p] DUB + AVO [Д. Есарев] sheker187 Скачать
    1 | 0
    Ultra HD (UHD: 2K, 4K, 8K) — видео сверхвысокой чёткости [ 47.35 GB ] Великий уравнитель 2 / The Equalizer 2 [2018 UHD BDRemux 2160p] DUB + AVO [Д. Есарев] sheker187 Скачать
    1 | 0

    28-11-2019 20:33  

    Отключить всю рекламу на сайте

    13-12-2014 15:32 Великий уравнитель Скачать торрент  

    фильмище -боевичище!!!!!!!! pb.wtf



    13-12-2014 18:26 Великий уравнитель Скачать торрент  

     
    пасиб!
    ===============
    upd

    :omg: :jest3:
    pb.wtf



      Дорогой пользователь! Огромная просьба, поблагодарите релизера, оцените раздачу и оставьте свои комментарий, если Вы скачали Великий уравнитель через торрент бесплатно!
      Комментировать посты могут только пользователи прошедшие не сложную регистрацию
      Показать сообщения:    

      Великий уравнитель через торрент
      Скачать бесплатно Великий уравнитель
      Великий уравнитель скачать торрент
      Великий уравнитель смотреть онлайн
      Cкачать фильм Великий уравнитель бесплатно
      Великий уравнитель скачать торрент в хорошем качестве
      Великий уравнитель смотреть онлайн бесплатно в хорошем качестве


      Вы не можете начинать темы
      Вы не можете отвечать на сообщения
      Вы не можете редактировать свои сообщения
      Вы не можете удалять свои сообщения
      Вы не можете голосовать в опросах
      Вы не можете прикреплять файлы к сообщениям
      Вы можете скачивать файлы