Ссылка на приватное зеркало нашего сайта всего за 1$. Внимание количество ограничено!!!

2 сезон

iTunes

1 сезон

1

iTunes

iTunes

iTunes

1 сезон

RePack

30

ИГРА 18+

pack

ВАЖНО

!!Акция!!

Alien_RageХит недели

RePack

MK11
pack

Забери бонус

RePack

jed

!!Акция!!

Alien_Rage

RePack

fifa19

RePack

Assassins Creed: Odyssey

RePack

NEED FOR SPEED™ PAYBACK

4 сезон

9 сезон

Бесстыжие 9 сезон

Все сериалы

все сериалы на PB.wtf

RePack

FAR CRY 5
  

Крестный путь / Kreuzweg (Дитрих Брюггеманн / Dietrich Brüggemann) [2014, Германия, драма, DVDRip) VO [lord666] pb.wtf

Крестный путь через торрент pb.wtf

Размер: 1.41 GB | Добавлен: 5 лет 10 мес. назад | Торрент скачан:68 раз
Скачать  

14-12-2014 04:54 Крестный путь Скачать торрент  

Крестный путь / Kreuzweg


  • Год выпуска: 2014
  • Страна: Германия
  • Жанр: драма
  • Продолжительность: 01:45:51
  • Перевод: Любительский (одноголосый)[lord666]

  • Режиссер: Дитрих Брюггеманн / Dietrich Brüggemann
  • В ролях:

    Lucie Aron (Bernadette), Анна Брюггеманн (Ärztin), Клаус Майкл Кэмп (Vater), Мориц Кнапп (Christian), Бирге Шаде (Sportlehrerin), Флориан Штеттер (Pater Weber), Свен Таддикен (Krankenpfleger), Леа ван Акен (Maria), Франциска Уайсс (Mutter), Georg Wesch (Thomas), Рамин Яздани (Arzt), Ханнс Цишлер (Bestatter)

  • Описание:
    Мария разрывается между двумя мирами. В школе она обычная четырнадцатилетняя девочка с типичными для подростка интересами, но дома со своей семьёй она живёт согласно учениям Священнического братства святого Пия XII и их традиционной интерпретации католицизма. Всё, что Мария думает и делает, находится на суде перед Богом. И так как Господь строгий наблюдатель, девочка живёт в постоянном страхе, что может совершить проступок. Пока её мать придерживается жёсткого воспитания в формировании у дочери убеждения следовать праведной тропой, отец Марии очень часто воздерживается и предпочитает оставаться в стороне во время критических моментов. Конфликты разгораются, когда заканчиваются аргументы в спорах с учителями и врачами. Отчаянно желая угодить всем и каждому, Мария вскоре оказывается меж двух огней. Как она сможет примирить чувства к своему однокласснику со своей клятвой оставаться верной сердцем лишь Богу? Потребует ли Господь принести непосильную жертву ради выздоровления её брата?
  • Рейтинг:



  • Качество: DVDRip
  • Формат: :AVI
  • Видео кодек: XviD
  • Аудио кодек: AC3
  • Видео: 720x304 (2.35:1), 1512 kbps, 25 fps, 0,276 bpp
  • Аудио: 5.1 / 48 kHz / 384 kbps / 16 bit
  • Релиз от: GEKADOL

    Код:

    General
    Complete name                            : I:\Krestny_put'.VO.lord666.avi
    Format                                   : AVI
    Format/Info                              : Audio Video Interleave
    File size                                : 1.41 GiB
    Duration                                 : 1h 45mn
    Overall bit rate                         : 1 906 Kbps
    Writing application                      : VirtualDubMod 1.5.10.2 (build 2540/release)
    Writing library                          : VirtualDubMod build 2540/release

    Video
    ID                                       : 0
    Format                                   : MPEG-4 Visual
    Format profile                           : Advanced Simple@L5
    Format settings, BVOP                    : 1
    Format settings, QPel                    : No
    Format settings, GMC                     : No warppoints
    Format settings, Matrix                  : Default (MPEG)
    Codec ID                                 : XVID
    Codec ID/Hint                            : XviD
    Duration                                 : 1h 45mn
    Bit rate                                 : 1 512 Kbps
    Width                                    : 720 pixels
    Height                                   : 304 pixels
    Display aspect ratio                     : 2.35:1
    Frame rate                               : 25.000 fps
    Color space                              : YUV
    Chroma subsampling                       : 4:2:0
    Bit depth                                : 8 bits
    Scan type                                : Progressive
    Compression mode                         : Lossy
    Bits/(Pixel*Frame)                       : 0.276
    Stream size                              : 1.12 GiB (79%)
    Writing library                          : XviD 73

    Audio
    ID                                       : 1
    Format                                   : AC-3
    Format/Info                              : Audio Coding 3
    Mode extension                           : CM (complete main)
    Codec ID                                 : 2000
    Duration                                 : 1h 45mn
    Bit rate mode                            : Constant
    Bit rate                                 : 384 Kbps
    Channel(s)                               : 6 channels
    Channel positions                        : Front: L C R, Side: L R, LFE
    Sampling rate                            : 48.0 KHz
    Bit depth                                : 16 bits
    Compression mode                         : Lossy
    Stream size                              : 291 MiB (20%)
    Alignment                                : Split accross interleaves
    Interleave, duration                     : 40 ms (1.00 video frame)
    Interleave, preload duration             : 500 ms


    Скриншоты:



    pb.wtf



  • Скачать Крестный путь через торрент http://i68.fastpic.ru/big/2014/1214/8a/d6b5ac97fbd806d2052eee15298a848a.jpg Скачать фильм Крестный путь через торрент бесплантно в хорошем качестве Описание: Мария разрывается между двумя мирами. В школе она обычная четырнадцатилетняя девочка с ичными для подростка интересами, но ... 10 10 1
    Торрент: Зарегистрирован [2014-12-14 04:54] · скачан: 68 раз
    Статус: T временная
    Размер: 1.41 GB
    Как cкачать? Как скачать Крестный путь через торрент | qTorrent

    28-11-2019 20:33  

    Отключить всю рекламу на сайте

      Дорогой пользователь! Огромная просьба, поблагодарите релизера, оцените раздачу и оставьте свои комментарий, если Вы скачали Крестный путь через торрент бесплатно! Внесите свою лепту в развитие PiratBit!
      Комментировать посты могут только пользователи прошедшие не сложную регистрацию
      Показать сообщения:    

      Крестный путь через торрент
      Скачать бесплатно Крестный путь
      Крестный путь скачать торрент
      Крестный путь смотреть онлайн
      Cкачать фильм Крестный путь бесплатно
      Крестный путь скачать торрент в хорошем качестве
      Крестный путь смотреть онлайн бесплатно в хорошем качестве


      Вы не можете начинать темы
      Вы не можете отвечать на сообщения
      Вы не можете редактировать свои сообщения
      Вы не можете удалять свои сообщения
      Вы не можете голосовать в опросах
      Вы не можете прикреплять файлы к сообщениям
      Вы можете скачивать файлы