Ссылка на приватное зеркало нашего сайта всего за 1$. Внимание количество ограничено!!!

2 сезон

iTunes

1 сезон

1

iTunes

iTunes

iTunes

1 сезон

RePack

30

ИГРА 18+

pack

ВАЖНО

!!Акция!!

Alien_RageХит недели

RePack

MK11
pack

Забери бонус

RePack

jed

!!Акция!!

Alien_Rage

RePack

fifa19

RePack

Assassins Creed: Odyssey

RePack

NEED FOR SPEED™ PAYBACK

4 сезон

9 сезон

Бесстыжие 9 сезон

Все сериалы

все сериалы на PB.wtf

RePack

FAR CRY 5
  

Все сокровища мира / Серии:1-8 из 8 (Александр Ефремов) [2014 г., Мелодрама, DVB] pb.wtf

Все сокровища мира через торрент pb.wtf

Размер: 12.18 GB | Добавлен: 5 лет 10 мес. назад | Торрент скачан:191 раз
Скачать  

14-12-2014 07:03 Все сокровища мира Скачать торрент  

Все сокровища мираГод выпуска: 2014
Страна: Россия кинокомпания "Медиапрофсоюз"
Жанр: Мелодрама
Продолжительность: 8 x ~ 00:48:00

Режиссер: Александр Ефремов
Продюссер: Антон Кальдин
Сценарий: Юлия Климок, Виктория Евсеева

Премьера в мире: 13 декабря 2014 В ролях: Мария Козакова, Алёна Яковлева, Сергей Журавель, Павел Южаков-Харланчук, Валерия Шкирандо, Андрей Биланов, Максим Радугин, Дмитрий Бедерин, Вероника Пляшкевич, Анна Хитрик, Сергей Пукита, Игорь Подливальчев, Лариса Маршалова, Елена Дубровская, Татьяна Бовкалова, Светлана Никифорова, Олеся Грибок, Елена Стеценко, Анастасия Боброва, Татьяна Чердынцева

Описание: После окончания вуза Анна Бессонова возвращается в родной Приморск. Анна - дипломированный эксперт по антиквариату и могла бы сделать хорошую карьеру в Москве, но дома у Ани больная мама, за которой нужно ухаживать. Однако и в маленьком городке Ане улыбается удача – девушка получает интересную работу в антикварном салоне «Сокровища мира» и встречает свою первую любовь – красавца Влада Бережнова. Вскоре Аня беременеет, и они с Владом решают пожениться. Аня счастлива – ее жизнь похожа на сказку. Девушка не догадывается, что «увела» Влада у дочери влиятельной чиновницы и «хозяйки города» Ангелины Вороновой. Дочь Вороновой клянется уничтожить Аню, и это не пустые угрозы. Воронова обожает дочь, готова сделать для нее что угодно, и «убрать» человека для Вороновой не проблема...

Качество: DVB
Формат: MPEG Video
Видео кодек: MPEG2
Аудио кодек: MPEG Audio
Видео: MPEG2 Video 720x576 (4:3), 25fps, 15000kbps
Аудио: MPEG Audio, 48000Hz, mono, 192kbps
Релиз от: Серый1779
Скриншоты:
скриншот  скриншот  скриншот  скриншот  скриншот  скриншот  




General
Complete name : E:\01 02 sicret7\Все сокровища мира DVB\Все сокровища мира 01_серия_DVB_by_Серый1779.mpg
Format : MPEG-PS
File size : 1.61 GiB
Duration : 48mn 29s
Overall bit rate mode : Variable
Overall bit rate : 4 759 Kbps
Writing library : (c) 1998-2008 Womble Multimedia, Inc. / MPEG Video Wizard (08/2008) / Aug 25 2008

Video
ID : 224 (0xE0)
Format : MPEG Video
Format version : Version 2
Format profile : Main@Main
Format settings, BVOP : Yes
Format settings, Matrix : Custom
Format settings, GOP : Variable
Duration : 48mn 29s
Bit rate mode : Variable
Bit rate : 4 473 Kbps
Maximum bit rate : 15.0 Mbps
Width : 720 pixels
Height : 576 pixels
Display aspect ratio : 4:3
Frame rate : 25.000 fps
Standard : PAL
Color space : YUV
Chroma subsampling : 4:2:0
Bit depth : 8 bits
Scan type : Interlaced
Scan order : Top Field First
Compression mode : Lossy
Bits/(Pixel*Frame) : 0.431
Stream size : 1.52 GiB (94%)
Alignment : (c) 1998-2008 Womble Multimedia, Inc. / MPEG Video Wizard (08/2008) / Aug 25 2008
Title : (c) 1998-2008 Womble Multimedia, Inc. / MPEG Video Wizard (08/2008) / Aug 25 2008
Writing library : (c) 1998-2008 Womble Multimedia, Inc. / MPEG Video Wizard (08/2008) / Aug 25 2008

Audio
ID : 192 (0xC0)
Format : MPEG Audio
Format version : Version 1
Format profile : Layer 2
Duration : 48mn 29s
Bit rate mode : Constant
Bit rate : 192 Kbps
Channel(s) : 1 channel
Sampling rate : 48.0 KHz
Compression mode : Lossy
Stream size : 66.6 MiB (4%)

Внимание! Раздача ведётся путём добавления новых серий; при каждом добавлении создаётся новый торрент-файл. Чтобы начать дозакачку новой серии, пользователям необходимо сделать следующее:
(1) остановить скачивание,
(2) удалить старый торрент-файл у себя из клиента (старые серии удалять не надо),
(3) скачать новый торрент-файл и запустить его у себя в клиенте вместо старого, при этом указать клиенту путь в старую папку куда и должно происходить скачивание новых серий.
Ваш клиент при этом должен произвести хеширование (проверку) старой папки (если не производит сам - помогите ему сделать это), и будет докачивать только те серии которых у вас ещё нет. Старые серии при этом не удаляются, а продолжают раздаваться!
Eсли вы уже удалили старые серии, то предотвратить повторную закачку старых серий можно, отжав галочку в соответствующих местах при запуске нового торрента.
Добавил с 5-8 серии!Обновите торрент!pb.wtf



Скачать Все сокровища мира через торрент http://pic.kartinco.top/images/8/6oqhc.jpg Скачать фильм Все сокровища мира через торрент бесплантно в хорошем качестве Описание: После окончания вуза Анна Бессонова возвращается в родной Приморск. Анна - дипломированный эксперт по антиквариату и могла бы ... 10 10 5
Торрент: Зарегистрирован [2014-12-15 19:45] · скачан: 191 раз
Статус: √ проверено
Размер: 12.18 GB
Как cкачать? Как скачать Все сокровища мира через торрент | qTorrent

28-11-2019 20:33  

Отключить всю рекламу на сайте

15-12-2014 19:45 Все сокровища мира Скачать торрент  

Добавил с 5-8 серии!Обновите торрент!pb.wtf



    Дорогой пользователь! Огромная просьба, поблагодарите релизера, оцените раздачу и оставьте свои комментарий, если Вы скачали Все сокровища мира через торрент бесплатно! Внесите свою лепту в развитие PiratBit!
    Комментировать посты могут только пользователи прошедшие не сложную регистрацию
    Показать сообщения:    

    Все сокровища мира через торрент
    Скачать бесплатно Все сокровища мира
    Все сокровища мира скачать торрент
    Все сокровища мира смотреть онлайн
    Cкачать фильм Все сокровища мира бесплатно
    Все сокровища мира скачать торрент в хорошем качестве
    Все сокровища мира смотреть онлайн бесплатно в хорошем качестве


    Вы не можете начинать темы
    Вы не можете отвечать на сообщения
    Вы не можете редактировать свои сообщения
    Вы не можете удалять свои сообщения
    Вы не можете голосовать в опросах
    Вы не можете прикреплять файлы к сообщениям
    Вы можете скачивать файлы