Ссылка на приватное зеркало нашего сайта всего за 1$. Внимание количество ограничено!!!

2 сезон

iTunes

1 сезон

1

iTunes

iTunes

iTunes

1 сезон

RePack

30

ИГРА 18+

pack

ВАЖНО

!!Акция!!

Alien_RageХит недели

RePack

MK11
pack

Забери бонус

RePack

jed

!!Акция!!

Alien_Rage

RePack

fifa19

RePack

Assassins Creed: Odyssey

RePack

NEED FOR SPEED™ PAYBACK

4 сезон

9 сезон

Бесстыжие 9 сезон

Все сериалы

все сериалы на PB.wtf

RePack

FAR CRY 5
  

Тайна в его глазах / El secreto de sus ojos (Хуан Хосе Кампанелла) [2009, триллер, драма, детектив, BDRip 1080p] 2 x MVO, AVO, VO pb.wtf

Тайна в его глазах через торрент pb.wtf

Размер: 12.02 GB | Добавлен: 5 лет 10 мес. назад | Торрент скачан:82 раза
Скачать  

14-12-2014 07:25 Тайна в его глазах Скачать торрент  

Тайна в его глазах / El secreto de sus ojos

Год выпуска: 2009
Страна: Испания, Аргентина
Жанр: триллер, драма, детектив
Продолжительность: 02:09:22
Перевод: профессиональный многоголосый, авторский, любительский одноголосый
Субтитры: русские, английские

Режиссёр: Хуан Хосе Кампанелла

В ролях: Соледад Вилльямиль, Рикардо Дарин, Карла Кеведо, Пабло Раго, Хавьер Годино, Барбара Палладино, Руди Романо, Алехандра Абеленда, Марио Аларкон, Гильермо Франселла

Описание: Бенджамин Эспозито - судебный служащий, решающий написать роман об одном уголовном деле, в котором он был свидетелем и главным действующим лицом...



Качество: BDRip 1080p Сравнение с исходником
Формат: MKV
Видео кодек: H.264
Аудио кодек: AC3, DTS
Видео: 1920x816, 8673 kbps, 23.976 кадра/с, 0.231 bpp
Аудио 1: русский, AC3, 448 kbps, 6 ch, 48 kHz [профессиональный многоголосый, R5]
Аудио 2: русский, AC3, 448 kbps, 6 ch, 48 kHz [профессиональный многоголосый]
Аудио 3: русский, DTS, 1509 kbps, 6 ch, 48 kHz [авторский, Юрий Сербин]
Аудио 4: русский, AC3, 448 kbps, 6 ch, 48 kHz [любительский, Docent]
Аудио 5: испанский, DTS, 1509 kbps, 6 ch, 48 kHz [оригинал]
Британская академия, 2011 год
Номинации (1):
Лучший фильм на иностранном языке

Сезар, 2011 год
Номинации (1):
Лучший фильм на иностранном языке

Оскар, 2010 год
Победитель (1):
Лучший фильм на иностранном языке — «Аргентина»Европейская киноакадемия, 2010 год
Номинации (1):
Лучший фильм

Гойя, 2010 год
Победитель (2):
Лучшая актриса-дюбютант (Соледад Вильямиль)
Лучший иностранный фильм на испанском языке

Номинации (7):
Лучший фильм
Лучшая мужская роль (Рикардо Дарин)
Лучший режиссер (Хуан Хосе Кампанелла)
Лучший адаптированный сценарий
Лучшая работа оператора
Лучший оригинальный саундтрек
Лучшая работа художника-постановщика

Сан-Себастьян, 2009 год
Номинации (1):
Золотая раковина
frame I:1152 Avg QP:15.09 size:160995
frame P:38188 Avg QP:16.36 size: 82037
frame B:146612 Avg QP:18.62 size: 36511

Общее
Уникальный идентификатор : 191594050195559326210002991212813542310 (0x9023ABFDF4A64B948E7E550297FAE3A6)
Полное имя : D:VideoTajna v ego glazah.2009.BDRip.1080p.mkv
Формат : Matroska
Версия формата : Version 4 / Version 2
Размер файла : 12,0 Гбайт
Продолжительность : 2 ч. 9 м.
Общий поток : 13,3 Мбит/сек
Дата кодирования : UTC 2014-12-14 03:50:10
Программа кодирования : mkvmerge v7.4.0 ('Circles') 64bit built on Dec 12 2014 12:19:56
Библиотека кодирования : libebml v1.3.0 + libmatroska v1.4.1
DURATION : 02:01:49.743000000
NUMBER_OF_FRAMES : 1579
NUMBER_OF_BYTES : 49284
_STATISTICS_WRITING_APP : mkvmerge v7.4.0 ('Circles') 64bit built on Dec 12 2014 12:19:56
_STATISTICS_WRITING_DATE_UTC : 2014-12-14 03:50:10
_STATISTICS_TAGS : BPS DURATION NUMBER_OF_FRAMES NUMBER_OF_BYTES

Видео
Идентификатор : 1
Формат : AVC
Формат/Информация : Advanced Video Codec
Профиль формата : High@L4.1
Параметр CABAC формата : Да
Параметр ReFrames формата : 4 кадра
Идентификатор кодека : V_MPEG4/ISO/AVC
Продолжительность : 2 ч. 9 м.
Битрейт : 8673 Кбит/сек
Ширина : 1920 пикселей
Высота : 816 пикселей
Соотношение сторон : 2,35:1
Режим частоты кадров : Постоянный
Частота кадров : 23,976 кадра/сек
Цветовое пространство : YUV
Субдискретизация насыщенности : 4:2:0
Битовая глубина : 8 бит
Тип развёртки : Прогрессивная
Бит/(Пиксели*Кадры) : 0.231
Размер потока : 7,84 Гбайт (65%)
Заголовок : BDRip -- STarankov
Библиотека кодирования : x264 core 142 r2431 ac76440
Настройки программы : cabac=1 / ref=4 / deblock=1:-1:-1 / analyse=0x3:0x113 / me=umh / subme=10 / psy=1 / psy_rd=1.00:0.15 / mixed_ref=1 / me_range=32 / chroma_me=1 / trellis=2 / 8x8dct=1 / cqm=0 / deadzone=21,11 / fast_pskip=1 / chroma_qp_offset=-3 / threads=6 / lookahead_threads=1 / sliced_threads=0 / nr=0 / decimate=1 / interlaced=0 / bluray_compat=0 / constrained_intra=0 / bframes=8 / b_pyramid=2 / b_adapt=2 / b_bias=0 / direct=3 / weightb=1 / open_gop=0 / weightp=2 / keyint=230 / keyint_min=23 / scenecut=40 / intra_refresh=0 / rc_lookahead=40 / rc=crf / mbtree=0 / crf=18.5 / qcomp=0.60 / qpmin=0 / qpmax=69 / qpstep=4 / vbv_maxrate=50000 / vbv_bufsize=62500 / crf_max=0.0 / nal_hrd=none / filler=0 / ip_ratio=1.40 / pb_ratio=1.30 / aq=1:1.00
Язык : Spanish
Default : Да
Forced : Нет
DURATION : 02:09:15.748000000
NUMBER_OF_FRAMES : 185952
NUMBER_OF_BYTES : 8671249540
_STATISTICS_WRITING_APP : mkvmerge v7.4.0 ('Circles') 64bit built on Dec 12 2014 12:19:56
_STATISTICS_WRITING_DATE_UTC : 2014-12-14 03:50:10
_STATISTICS_TAGS : BPS DURATION NUMBER_OF_FRAMES NUMBER_OF_BYTES

Аудио #1
Идентификатор : 2
Формат : AC-3
Формат/Информация : Audio Coding 3
Расширение режима : CM (complete main)
Параметр Endianness формата : Big
Идентификатор кодека : A_AC3
Продолжительность : 2 ч. 9 м.
Вид битрейта : Постоянный
Битрейт : 448 Кбит/сек
Каналы : 6 каналов
Расположение каналов : Front: L C R, Side: L R, LFE
Частота : 48,0 КГц
Битовая глубина : 16 бит
Метод сжатия : С потерями
Размер потока : 415 Мбайт (3%)
Заголовок : MVO (R5)
Язык : Russian
Default : Да
Forced : Нет

Аудио #2
Идентификатор : 3
Формат : AC-3
Формат/Информация : Audio Coding 3
Расширение режима : CM (complete main)
Параметр Endianness формата : Big
Идентификатор кодека : A_AC3
Продолжительность : 2 ч. 9 м.
Вид битрейта : Постоянный
Битрейт : 448 Кбит/сек
Каналы : 6 каналов
Расположение каналов : Front: L C R, Side: L R, LFE
Частота : 48,0 КГц
Битовая глубина : 16 бит
Метод сжатия : С потерями
Размер потока : 415 Мбайт (3%)
Заголовок : MVO
Язык : Russian
Default : Нет
Forced : Нет

Аудио #3
Идентификатор : 4
Формат : DTS
Формат/Информация : Digital Theater Systems
Режим : 16
Параметр Endianness формата : Big
Идентификатор кодека : A_DTS
Продолжительность : 2 ч. 9 м.
Вид битрейта : Постоянный
Битрейт : 1509 Кбит/сек
Каналы : 6 каналов
Расположение каналов : Front: L C R, Side: L R, LFE
Частота : 48,0 КГц
Битовая глубина : 24 бит
Метод сжатия : С потерями
Размер потока : 1,36 Гбайт (11%)
Заголовок : AVO (Юрий Сербин)
Язык : Russian
Default : Нет
Forced : Нет

Аудио #4
Идентификатор : 5
Формат : AC-3
Формат/Информация : Audio Coding 3
Расширение режима : CM (complete main)
Параметр Endianness формата : Big
Идентификатор кодека : A_AC3
Продолжительность : 2 ч. 9 м.
Вид битрейта : Постоянный
Битрейт : 448 Кбит/сек
Каналы : 6 каналов
Расположение каналов : Front: L C R, Side: L R, LFE
Частота : 48,0 КГц
Битовая глубина : 16 бит
Метод сжатия : С потерями
Размер потока : 415 Мбайт (3%)
Заголовок : VO (Docent, любительский одноголосый)
Язык : Russian
Default : Нет
Forced : Нет

Аудио #5
Идентификатор : 6
Формат : DTS
Формат/Информация : Digital Theater Systems
Режим : 16
Параметр Endianness формата : Big
Идентификатор кодека : A_DTS
Продолжительность : 2 ч. 9 м.
Вид битрейта : Постоянный
Битрейт : 1509 Кбит/сек
Каналы : 6 каналов
Расположение каналов : Front: L C R, Side: L R, LFE
Частота : 48,0 КГц
Битовая глубина : 24 бит
Метод сжатия : С потерями
Размер потока : 1,36 Гбайт (11%)
Заголовок : Original
Язык : Spanish
Default : Нет
Forced : Нет

Текст #1
Идентификатор : 7
Формат : UTF-8
Идентификатор кодека : S_TEXT/UTF8
Идентификатор кодека/Информация : UTF-8 Plain Text
Заголовок : русский
Язык : Russian
Default : Нет
Forced : Нет

Текст #2
Идентификатор : 8
Формат : UTF-8
Идентификатор кодека : S_TEXT/UTF8
Идентификатор кодека/Информация : UTF-8 Plain Text
Заголовок : английский
Default : Нет
Forced : Нет
pb.wtf



Скачать Тайна в его глазах через торрент http://i68.fastpic.ru/big/2014/1214/33/6f8b7af6afb07cd886c48a32c401fd33.jpg Скачать фильм Тайна в его глазах через торрент бесплантно в хорошем качестве Описание: Бенджамин Эспозито - судебный служащий, решающий написать роман об одном уголовном деле, в котором он был свидетелем и главным ... 10 10 5
Торрент: Зарегистрирован [2014-12-14 07:25] · скачан: 82 раз
Статус: √ проверено
Размер: 12.02 GB
Как cкачать? Как скачать Тайна в его глазах через торрент | qTorrent

28-11-2019 20:33  

Отключить всю рекламу на сайте

    Дорогой пользователь! Огромная просьба, поблагодарите релизера, оцените раздачу и оставьте свои комментарий, если Вы скачали Тайна в его глазах через торрент бесплатно! Внесите свою лепту в развитие PiratBit!
    Комментировать посты могут только пользователи прошедшие не сложную регистрацию
    Показать сообщения:    

    Тайна в его глазах через торрент
    Скачать бесплатно Тайна в его глазах
    Тайна в его глазах скачать торрент
    Тайна в его глазах смотреть онлайн
    Cкачать фильм Тайна в его глазах бесплатно
    Тайна в его глазах скачать торрент в хорошем качестве
    Тайна в его глазах смотреть онлайн бесплатно в хорошем качестве


    Вы не можете начинать темы
    Вы не можете отвечать на сообщения
    Вы не можете редактировать свои сообщения
    Вы не можете удалять свои сообщения
    Вы не можете голосовать в опросах
    Вы не можете прикреплять файлы к сообщениям
    Вы можете скачивать файлы