Всегда рабочее зеркало без VPN и Proxy просто перед .vidak.icu напиши любое слово или цифру, Пример http://79b2.vidak.icu

MVO

MVO

1 сезон

1

1 сезон

iTunes

1 сезон

13

1 сезон

Deluxe

pack

Рекомендуем

Repack

30

ВАЖНО

RePack

MK11

RePack

jed

RePack

fifa19

RePack

RDR2

RePack

NEED FOR SPEED™ PAYBACK

Кинопоиск HD

6 сезон

 Острые козырьки 6 сезон

Все сериалы

все сериалы на PB.wtf

RePack

FAR CRY 5
  
Magnet ссылка

Рухнувшие Небеса / Сошедшие с небес / Falling Skies / Сезон: 4 / Серии: 1-12 из 12 (Грег Биман) [2014, Боевик, Фантастика, Триллер WEB-DLRip] MVO (LostFilm) pb.wtf

Рухнувшие Небеса через торрент pb.wtf

Размер: 5.44 GB | Добавлен: 7 лет 7 мес. назад | Торрент скачан:422 раза
Смотреть онлайн Рухнувшие Небеса | Скачать    Ребята, помогите собрать деньги на оплату серверов!!!

14-12-2014 14:46 Рухнувшие Небеса Скачать торрент  

Рухнувшие Небеса / Falling Skies
Год выпуска: 2014
Страна: США
Жанр: Боевик, Фантастика, Триллер
Продолжительность: ~ 00:45:00
Перевод: Профессиональный многоголосый (LostFilm)

Режиссер: Грег Биман, Серджо Мимика-Геззан, Адам Кэйн



В ролях: Колин Каннингэм, Максим Найт, Ноа Уайл, Мун Бладгуд, Мфо Коахо, Сара Картер, Коннор Джессуп, Брюс Грэй, Дейл Дай, Дрю Рой

Описание: Инопланетное вторжение стало для землян полной неожиданностью. Несколько выживших объединяются, чтобы ежедневно бороться за выживание и попытаться наладить связь с такими же как они «счастливчиками» из других городов, и дать отпор захватчикам из космоса.

Качество: WEB-DLRip
Формат: AVI
Видео кодек: XviD
Аудио кодек: MP3
Видео: 720x400 (16:9), 23.976 fps, 1 680 Kbps (0.243 bit/pixel)
Аудио#1: 48.0 KHz, 2 ch, 192 Kbps, VBR

Общее
Полное имя : F:\Рухнувшие небеса Falling Skies\Falling.Skies.(S04).LF\Falling.Skies.S04E01.rus.LostFilm.TV.avi
Формат : AVI
Формат/Информация : Audio Video Interleave
Размер файла : 571 Мбайт
Продолжительность : 42 м.
Режим общего битрейта : Переменный
Общий поток : 1880 Кбит/сек
Программа кодирования : Nandub v1.0rc2
Библиотека кодирования : Nandub build 1853/release

Видео
Идентификатор : 0
Формат : MPEG-4 Visual
Профиль формата : [email protected]
Параметр BVOP формата : Нет
Параметр QPel формата : Нет
Параметр GMC формата : Без точки перехода
Параметр матрицы формата : Default (H.263)
Идентификатор кодека : XVID
Идентификатор кодека/Подсказка : XviD
Продолжительность : 42 м.
Битрейт : 1680 Кбит/сек
Ширина : 720 пикселей
Высота : 400 пикселей
Соотношение сторон : 16:9
Частота кадров : 23,976 кадра/сек
Цветовое пространство : YUV
Субдискретизация насыщенности : 4:2:0
Битовая глубина : 8 бит
Тип развёртки : Прогрессивная
Метод сжатия : С потерями
Бит/(Пиксели*Кадры) : 0.243
Размер потока : 510 Мбайт (89%)
Библиотека кодирования : XviD 1.2.1 (UTC 2008-12-04)

Аудио
Идентификатор : 1
Формат : MPEG Audio
Версия формата : Version 1
Профиль формата : Layer 3
Режим : Joint stereo
Расширение режима : MS Stereo
Идентификатор кодека : 55
Идентификатор кодека/Подсказка : MP3
Продолжительность : 42 м.
Вид битрейта : Переменный
Битрейт : 192 Кбит/сек
Каналы : 2 канала
Частота : 48,0 КГц
Метод сжатия : С потерями
Размер потока : 56,8 Мбайт (10%)
Выравнивание : Соединение по промежуткам
Продолжительность промежутка : 24 мс. (0,58 видеокадр)
Время предзагрузки промежутка : 492 мс.
Библиотека кодирования : LAME3.97b
Настройки программы : -m j -V 4 -q 3 -lowpass 18.6 --abr 192


Рухнувшие Небеса скачать торрент


pb.wtf



Скачать Рухнувшие Небеса через торрент https://pic1.kartinco.top/images/81/2ifps.jpg Скачать, смотреть онлайн Рухнувшие Небеса бесплантно в хорошем качестве Описание: Инопланетное вторжение стало для землян полной неожиданностью. Несколько выживших объединяются, чтобы ежедневно бороться за ... 9.8 10 20
Info! Золотая раздача, скачанное не засчитывается.
Торрент: Зарегистрирован [2014-12-14 14:46] · скачан: 422 раз
Статус: √ проверено
Размер: 5.44 GB
Как cкачать? Как скачать Рухнувшие Небеса через торрент | UTorrent

% Раздел Тема Автор DL S | L
Зарубежные сериалы [ 5.28 GB ] Сошедшие с небес / Рухнувшие небеса / Falling Skies / Сезон: 4 / Серии: 1-12 из 12 [2014 катастрофа WEB-DLRip] MVO + Original Assasinca Скачать
1 | 0

28-11-2019 20:33  

Отключить вcю реклaмy на сайте

15-12-2014 10:07 Рухнувшие Небеса Скачать торрент  

Сезон то какой? Насколько мне известно в 2014 году 4 сезон вышел, а первый сезон 2011 года. И название его Сошедшие с небес (Falling Skies) - хотя если дословно то "Падение неба"pb.wtf



15-12-2014 10:08 Рухнувшие Небеса Скачать торрент  

А сериальчик то зачет!pb.wtf



20-06-2022 15:49 Рухнувшие Небеса Скачать торрент  

хороший сериал
смотрел раньшеpb.wtf



    Дорогой пользователь! Огромная просьба, поблагодарите релизера, оцените раздачу и оставьте свои комментарий, если Вы скачали Рухнувшие Небеса через торрент бесплатно!
    Комментировать посты могут только пользователи прошедшие не сложную регистрацию
    Показать сообщения:    

    Рухнувшие Небеса через торрент
    Скачать бесплатно Рухнувшие Небеса
    Рухнувшие Небеса скачать торрент
    Рухнувшие Небеса смотреть онлайн
    Cкачать фильм Рухнувшие Небеса бесплатно
    Рухнувшие Небеса скачать торрент в хорошем качестве
    Рухнувшие Небеса смотреть онлайн бесплатно в хорошем качестве


    Вы не можете начинать темы
    Вы не можете отвечать на сообщения
    Вы не можете редактировать свои сообщения
    Вы не можете удалять свои сообщения
    Вы не можете голосовать в опросах
    Вы не можете прикреплять файлы к сообщениям
    Вы можете скачивать файлы