1 сезон

1 сезон

iTunes

1

КиноПоиск HD

Кинопоиск HD

iTunes

13

1 сезон

RePack

30

Ultimate

ВАЖНО

ИГРА 18+

pack

RePack

MK11
pack

Легкие деньги

RePack

jed

RePack

fifa19

RePack

RDR2

RePack

NEED FOR SPEED™ PAYBACK

4 сезон

9 сезон

Бесстыжие 9 сезон

Все сериалы

все сериалы на PB.wtf

RePack

FAR CRY 5
  
Magnet ссылка

Антитела / Antikörper (Кристиан Альварт / Christian Alvart) [2005, Германия, триллер, драма, криминал, DVDRip, Профессиональный многоголосый - Лицензия] pb.wtf

Антитела через торрент pb.wtf

Размер: 2.18 GB | Добавлен: 6 лет 3 мес. назад | Торрент скачан:165 раз
Скачать  

14-12-2014 18:59 Антитела Скачать торрент  

Антитела / Antikörper«Evil is contagious»
Год выпуска: 2005
Страна: Германия
Жанр: триллер, драма, криминал
Продолжительность: 02:02:20
Перевод: Профессиональный многоголосый [Лицензия]
Субтитры: Отсутствует
Режиссер: Кристиан Альварт / Christian Alvart
В ролях:


Норман Ридус (Polizist Schmitz), Андре Хеннике (Gabriel Engel), Вотан Вильке Мёринг (Michael Martens), Хайнц Хёниг (Seiler), Хауке Дикамп (Christan Martens), Кристиан фон Астер (Polizist Wagner), Вальтрауд Витте (Frau Hering), Константин Граудус (Wosniak), Ульрике Крумбигель (Rosa Martens), Юрген Шорнагель (Sucharzewski), Гудрун Риттер (Frau Sucharzewski), Лаура Альберта Шальски (Sarah Martens)

Описание:
Во флигеле одного из берлинских дворов отряд особого назначения задерживает серийного убийцу Габриэля Энгеля. Опытный комиссар Зайлер позволяет себе излишне бурно отпраздновать этот успех. Он не подозревает, что кошмар только начинается. В родной деревне полицейского Михаэля Мартенса некоторое время назад была зверски убита маленькая девочка. Мартин едет в Берлин с целью допросить арестованного маньяка. Но вместо того, чтобы сознаться в преступлении, Габриэль Энгель втягивает деревенского детектива в хитроумную игру добра и зла, правды и лжи. Следы вдруг резко меняют направление. Подлинный убийца, похоже, находится в опасной близости от Мартенса.

Рейтинг:
Бюджет: €1 900 000
Качество: DVDRip
Формат: AVI
Видео кодек:XviD
Аудио кодек:AC3
Видео: XviD, 720x304 (2.35:1), 1696 kbps, 25 fps, 0,310 bpp
Аудио №1: AC3 / 5.1 / 48 kHz / 448 kbps / 16 bit - Профессиональный многоголосый [Лицензия]
Аудио №2: AC3 / 2.0 / 48 kHz / 192 kbps / 16 bit - Профессиональный (двухголосый закадровый)
Аудио №3: AC3 / 2.0 / 48 kHz / 192 kbps / 16 bit - (оригинал)

Внимание:6-канальный русский звук взятый из DVD9, который, к сожалению, битый (отсутствует около 10 минут в середине фильма). Эти 10 минут были восстановлены из двухканальной дорожки DVD5. В моменты 1:05:30 и 1:16:24 вы услышите переходы..
General
Complete name : D:\Users\_KaisiK_\uTorrent\КИНО\Antitela.2005.TRIPLE.DVDRip.XviD.AC3.-RoadTrain.avi
Format : AVI
Format/Info : Audio Video Interleave
Format profile : OpenDML
File size : 2.18 GiB
Duration : 2h 2mn
Overall bit rate : 2 554 Kbps
Writing application : VirtualDubMod 1.5.10.2 (build 2540/release)
Writing library : VirtualDubMod build 2540/release

Video
ID : 0
Format : MPEG-4 Visual
Format profile : Advanced Simple@L5
Format settings, BVOP : 2
Format settings, QPel : No
Format settings, GMC : No warppoints
Format settings, Matrix : Default (H.263)
Muxing mode : Packed bitstream
Codec ID : XVID
Codec ID/Hint : XviD
Duration : 2h 2mn
Bit rate : 1 697 Kbps
Width : 720 pixels
Height : 304 pixels
Display aspect ratio : 2.35:1
Frame rate : 25.000 fps
Color space : YUV
Chroma subsampling : 4:2:0
Bit depth : 8 bits
Scan type : Progressive
Compression mode : Lossy
Bits/(Pixel*Frame) : 0.310
Stream size : 1.45 GiB (66%)
Writing library : XviD 1.1.2 (UTC 2006-11-01)

Audio #1
ID : 1
Format : AC-3
Format/Info : Audio Coding 3
Mode extension : CM (complete main)
Codec ID : 2000
Duration : 2h 2mn
Bit rate mode : Constant
Bit rate : 448 Kbps
Channel(s) : 6 channels
Channel positions : Front: L C R, Side: L R, LFE
Sampling rate : 48.0 KHz
Bit depth : 16 bits
Compression mode : Lossy
Stream size : 392 MiB (18%)
Alignment : Split accross interleaves
Interleave, duration : 40 ms (1.00 video frame)
Interleave, preload duration : 500 ms

Audio #2
ID : 2
Format : AC-3
Format/Info : Audio Coding 3
Mode extension : CM (complete main)
Codec ID : 2000
Duration : 2h 2mn
Bit rate mode : Constant
Bit rate : 192 Kbps
Channel(s) : 2 channels
Channel positions : Front: L R
Sampling rate : 48.0 KHz
Bit depth : 16 bits
Compression mode : Lossy
Stream size : 168 MiB (8%)
Alignment : Split accross interleaves
Interleave, duration : 40 ms (1.00 video frame)
Interleave, preload duration : 500 ms

Audio #3
ID : 3
Format : AC-3
Format/Info : Audio Coding 3
Mode extension : CM (complete main)
Codec ID : 2000
Duration : 2h 2mn
Bit rate mode : Constant
Bit rate : 192 Kbps
Channel(s) : 2 channels
Channel positions : Front: L R
Sampling rate : 48.0 KHz
Bit depth : 16 bits
Compression mode : Lossy
Stream size : 168 MiB (8%)
Alignment : Split accross interleaves
Interleave, duration : 40 ms (1.00 video frame)
Interleave, preload duration : 500 ms

[/code]
pb.wtf



Скачать Антитела через торрент http://i66.fastpic.ru/big/2014/1214/72/c122e43f212cf65e6e4f57cdba566a72.png Скачать фильм Антитела через торрент бесплантно в хорошем качестве Описание: Во флигеле одного из берлинских дворов отряд особого назначения задерживает серийного убийцу Габриэля Энгеля. Опытный комиссар ... 10 10 3
Торрент: Зарегистрирован [2014-12-14 18:59] · скачан: 165 раз
Статус: √ проверено
Размер: 2.18 GB
Как cкачать? Как скачать Антитела через торрент | UTorrent

% Раздел Тема Автор DL S | L
Релизы по Парсеру [Игры, Сериалы и Фильмы и другое...] [ 1.46 GB ] Антитела / Antibodies / Antikörper [2005 DVDRip] Dub sanekbest1 Скачать
1 | 0

28-11-2019 20:33  

Отключить всю рекламу на сайте

    Дорогой пользователь! Огромная просьба, поблагодарите релизера, оцените раздачу и оставьте свои комментарий, если Вы скачали Антитела через торрент бесплатно! Внесите свою лепту в развитие PiratBit!
    Комментировать посты могут только пользователи прошедшие не сложную регистрацию
    Показать сообщения:    

    Антитела через торрент
    Скачать бесплатно Антитела
    Антитела скачать торрент
    Антитела смотреть онлайн
    Cкачать фильм Антитела бесплатно
    Антитела скачать торрент в хорошем качестве
    Антитела смотреть онлайн бесплатно в хорошем качестве


    Вы не можете начинать темы
    Вы не можете отвечать на сообщения
    Вы не можете редактировать свои сообщения
    Вы не можете удалять свои сообщения
    Вы не можете голосовать в опросах
    Вы не можете прикреплять файлы к сообщениям
    Вы можете скачивать файлы