Ссылка на приватное зеркало всего за 1$. Внимание количество ограничено!!!

iTunes

iTunes

iTunes

1

iTunes

iTunes

iTunes

iTunes

iTunes

30
pack

$ от Little Big

ВАЖНО

!!Акция!!

Alien_RageХит недели

RePack

Resident Evil 21

ИГРА 18+

pack

RePack

jed

!!Акция!!

Alien_Rage

RePack

fifa19

RePack

Assassins Creed: Odyssey

RePack

NEED FOR SPEED™ PAYBACK

4 сезон

9 сезон

Бесстыжие 9 сезон

Все сериалы

все сериалы на PB.wtf

RePack

FAR CRY 5
  

Санта Мяус / Santa Claws (Гленн Р. Миллер) [2014, комедия, семейный, WEB-DL 720p] VO (Вячеслав Замез aka zamez) pb.wtf

Санта Мяус через торрент pb.wtf

Размер: 2.75 GB | Добавлен: 5 лет 6 мес. назад | Торрент скачан:50 раз
Скачать  

15-12-2014 05:12 Санта Мяус Скачать торрент  

Информация о фильме

Название: Санта Мяус

Оригинальное название: Santa Claws

Год выхода: 2014

Выпущено: США

Продолжительность: 01:26:09

Озвучивание: Любительский (одноголосый) [Вячеслав Замез]

Жанр: комедия, семейный

Режиссер: Гленн Р. Миллер

В ролях: Элза Джеймс Колберт, Никола Ламбо, Джон П.Фоулер, Йен Боумел

Описание: В детстве Джулия разуверилась в Рождестве и по сей день не даёт своему сыну отмечать его, мол это придумали производители игрушек и колы, чтобы денег заработать. Трое отважных котят, малыш Томми, чокнутый сосед мистер Брэмбл и сам Санта докажут Джулии, что она ошибалась.



Файл
Качество: WEB-DL 720p
  • Формат: MKV
  • Видео кодек: AVC
  • Аудио кодек:AC3
    Видео: 3897 kb/s, 1280x720, 23,976 fps
    Аудио: Russian: AC3, 192 kb/s (2 ch) / 48 kHz
    Аудио: English: AC3, 384 kb/s (6 ch)/ 48 kHz
    General

    Unique ID : 184317100380946234953833874126668536218 (0x8AAA2EAA77B4FF4A86981CA996FB999A)

    Complete name : C:UsersuserDesktopSanta.Claws.2014.WEB-DL.720p.mkv

    Format : Matroska

    Format version : Version 4 / Version 2

    File size : 2.75 GiB

    Duration : 1h 26mn

    Overall bit rate : 4 565 Kbps

    Encoded date : UTC 2014-12-14 22:46:38

    Writing application : mkvmerge v7.3.0 ('Nouages') 32bit built on Oct 22 2014 18:44:01

    Writing library : libebml v1.3.0 + libmatroska v1.4.1

    DURATION : 01:26:07.776000000

    NUMBER_OF_FRAMES : 147326

    NUMBER_OF_BYTES : 226288262

    _STATISTICS_WRITING_APP : mkvmerge v7.3.0 ('Nouages') 32bit built on Oct 22 2014 18:44:01

    _STATISTICS_WRITING_DATE_UTC : 2014-12-14 22:46:38

    _STATISTICS_TAGS : BPS DURATION NUMBER_OF_FRAMES NUMBER_OF_BYTES

    Video

    ID : 1

    Format : AVC

    Format/Info : Advanced Video Codec

    Format profile : High@L3.1

    Format settings, CABAC : No

    Format settings, ReFrames : 2 frames

    Codec ID : V_MPEG4/ISO/AVC

    Duration : 1h 26mn

    Bit rate : 3 898 Kbps

    Width : 1 280 pixels

    Height : 720 pixels

    Display aspect ratio : 16:9

    Frame rate mode : Constant

    Frame rate : 23.976 fps

    Color space : YUV

    Chroma subsampling : 4:2:0

    Bit depth : 8 bits

    Scan type : Progressive

    Bits/(Pixel*Frame) : 0.176

    Stream size : 2.35 GiB (85%)

    Language : English

    Default : Yes

    Forced : No

    Color primaries : BT.709

    Transfer characteristics : BT.709

    Matrix coefficients : BT.709

    Color range : Limited

    Audio #1

    ID : 2

    Format : AC-3

    Format/Info : Audio Coding 3

    Mode extension : CM (complete main)

    Format settings, Endianness : Big

    Codec ID : A_AC3

    Duration : 1h 26mn

    Bit rate mode : Constant

    Bit rate : 192 Kbps

    Channel(s) : 2 channels

    Channel positions : Front: L R

    Sampling rate : 48.0 KHz

    Bit depth : 16 bits

    Compression mode : Lossy

    Stream size : 118 MiB (4%)

    Title : Вячеслав Замез

    Language : Russian

    Default : Yes

    Forced : Yes

    Audio #2

    ID : 3

    Format : AC-3

    Format/Info : Audio Coding 3

    Mode extension : CM (complete main)

    Format settings, Endianness : Big

    Codec ID : A_AC3

    Duration : 1h 26mn

    Bit rate mode : Constant

    Bit rate : 384 Kbps

    Channel(s) : 6 channels

    Channel positions : Front: L C R, Side: L R, LFE

    Sampling rate : 48.0 KHz

    Bit depth : 16 bits

    Compression mode : Lossy

    Stream size : 237 MiB (8%)

    Language : English

    Default : No

    Forced : No

    Menu

    00:00:00.000 : en:Santa's Allergy

    00:08:03.000 : en:Kitten Trouble

    00:15:14.000 : en:We Need to Talk About the Cats

    00:21:54.000 : en:Dear Santa

    00:29:49.000 : en:Saving Christmas

    00:37:14.000 : en:Hiding Santa

    00:44:22.000 : en:A New Pet

    00:52:10.000 : en:Sleigh Ride Turbulence

    01:01:57.000 : en:The Christmas Spirit

    01:07:36.000 : en:Cookies

    01:12:17.000 : en:Home for the Holidays

    01:18:12.000 : en:Presents

    01:22:18.000 : en:End Credits


    pb.wtf



  • Скачать Санта Мяус через торрент http://s012.radikal.ru/i319/1412/00/7ba1254e45fa.jpg Скачать фильм Санта Мяус через торрент бесплантно в хорошем качестве Описание: В детстве Джулия разуверилась в Рождестве и по сей день не даёт своему сыну отмечать его, мол это придумали производители ... 10 10 2
    Торрент: Зарегистрирован [2014-12-15 05:12] · скачан: 50 раз
    Статус: T временная
    Размер: 2.75 GB
    Как cкачать? Как скачать Санта Мяус через торрент | qTorrent

    % Раздел Тема Автор DL S | L
    T Фильмы 2014 (Звук TS, Cam, VO, DVO) [ 1010 MB ] Санта Мяус / Santa Claws [2014 HDRip] VO Ворон Скачать
    1 | 0

    28-11-2019 20:33  

    Отключить всю рекламу на сайте

      Дорогой пользователь! Огромная просьба, поблагодарите релизера, оцените раздачу и оставьте свои комментарий, если Вы скачали Санта Мяус через торрент бесплатно! Внесите свою лепту в развитие PiratBit!
      Комментировать посты могут только пользователи прошедшие не сложную регистрацию
      Показать сообщения:    

      Санта Мяус через торрент
      Скачать бесплатно Санта Мяус
      Санта Мяус скачать торрент
      Санта Мяус смотреть онлайн
      Cкачать фильм Санта Мяус бесплатно
      Санта Мяус скачать торрент в хорошем качестве
      Санта Мяус смотреть онлайн бесплатно в хорошем качестве


      Вы не можете начинать темы
      Вы не можете отвечать на сообщения
      Вы не можете редактировать свои сообщения
      Вы не можете удалять свои сообщения
      Вы не можете голосовать в опросах
      Вы не можете прикреплять файлы к сообщениям
      Вы можете скачивать файлы