2 сезон

iTunes

1 сезон

1

iTunes

iTunes

iTunes

1 сезон

RePack

30

ИГРА 18+

pack

ВАЖНО

!!Акция!!

Alien_RageХит недели

RePack

MK11
pack

Забери бонус

RePack

jed

!!Акция!!

Alien_Rage

RePack

fifa19

RePack

Assassins Creed: Odyssey

RePack

NEED FOR SPEED™ PAYBACK

4 сезон

9 сезон

Бесстыжие 9 сезон

Все сериалы

все сериалы на PB.wtf

RePack

FAR CRY 5
  

Однажды в Америке / Once Upon a Time in America (Серджио Леоне ) [1983, драма, криминал, BDRip 1080p, MVO, AVO] pb.wtf

Однажды в Америке через торрент pb.wtf

Раздают: 1 [ 72 KB/s ]
Размер: 23.09 GB | Добавлен: 5 лет 10 мес. назад | Торрент скачан:138 раз
Скачать  

15-12-2014 14:49 Однажды в Америке Скачать торрент  

Однажды в Америке / Once Upon a Time in America
«As boys, they made a pact to share their fortunes, their loves, their lives. As men, they shared a dream to rise from poverty to power. Forging an empire built on greed, violence and betrayal, their dream would end as a mystery that refuse to die»


Год выпуска: 1983
Страна: Италия, США
Жанр: драма, криминал
Продолжительность: 03:49:20
Перевод: Профессиональный многоголосый
Профессиональный (двухголосый)
Авторский (одноголосый)

Субтитры: русские (Russian), английские (English. SDH)
Режиссер: Серджио Леоне
В ролях: Роберт Де Ниро , Джеймс Вудс , Элизабет МакГоверн , Джо Пеши , Берт Янг , Тьюзди Уэлд , Трит Уильямс , Дэнни Айелло , Ричард Брайт , Джеймс Хейден , Уильям Форсайт , Дарлэнн Флюгел
Описание::
В бурные двадцатые годы, когда Америка веселилась под звуки джаза и каждый бродяга мечтал стать миллионером, в трущобах Нью-Йорка встретились несколько отчаянных парней. Убирая с дороги конкурентов, безжалостно карая предателей и нагло проворачивая хитроумные аферы, они стали королями преступного мира золотой эры «сухого закона». Они поклялись отдать жизнь друг за друга, зная, что самое главное для них - это дружба, долг и справедливость - не утопить в реках крови и бездонном океане денег. Спустя много лет судьба жестоко обошлась с легендарными гангстерами, заставив их исполнить свою клятву. Это случилось однажды в Америке...

Качество: BDRip 1080p (исходник Blu-ray)
Контейнер (Расширение): MKV
Видео кодек: AVC
Аудио кодек: AC3
Видео: 1920x1080 (16:9), 8523 Кбит/сек, 23,976 кадр/сек, 0,171 Бит/[Пиксели*Кадры]
Аудио №1: русский / AC3 / 5.1 / 48 kHz / 448 kbps / 16 bit |Многоголосый закадровый, НТВ+|
Аудио №2: русский / AC3 / 2.0 / 48 kHz / 192 kbps / 16 bit |Авторский, О.Борисов|
Аудио №3: русский / AC3 / 2.0 / 48 kHz / 192 kbps / 16 bit |Двухголосый закадровый, Конкин и тётя|
Аудио №4: русский / AC3 / 5.1 / 48 kHz / 640 kbps / 16 bit |Многоголосый закадровый, Позитив-Мультимедиа|
Аудио №5: русский / AC3 / 5.1 / 48 kHz / 448 kbps / 16 bit |Многоголосый закадровый, Карусель/Киномания|
Аудио №6: русский / AC3 / 5.1 / 48 kHz / 640 kbps / 16 bit |Двухголосый закадровый, П.Гланц и И.Королева|
Аудио №7: русский / AC3 / 5.1 / 48 kHz / 640 kbps / 16 bit |Авторский, Ю.Сербин|
Аудио №8: русский / AC3 / 5.1 / 48 kHz / 640 kbps / 16 bit |Авторский, Л.Володарский|
Аудио №9: русский / AC3 / 5.1 / 48 kHz / 640 kbps / 16 bit |Авторский, Ю.Живов|
Аудио №10: русский / AC3 / 2.0 / 48 kHz / 192 kbps / 16 bit |Авторский, А.Гаврилов (ранний перевод)|
Аудио №11: русский / AC3 / 2.0 / 48 kHz / 192 kbps / 16 bit |Авторский, А.Гаврилов (поздний перевод)|
Аудио №12: русский / AC3 / 2.0 / 48 kHz / 192 kbps / 16 bit |Авторский, А.Михалев|
Аудио №13: русский / AC3 / 2.0 / 48 kHz / 192 kbps / 16 bit | Авторский, В.Горчаков|
Аудио №14: английский / AC3 / 5.1 / 48 kHz / 640 kbps / 16 bit
Навигация по главам(Чаптеры): естьАвтор рипа: Сообщество:

Код:

Format                                   : Matroska
Format version                           : Version 2
File size                                : 23.1 GiB
Duration                                 : 3h 49mn
Overall bit rate                         : 14.4 Mbps
Movie name                               : Odnazhdy v Amerike.(1984).BDRip.1080p.[denis100]
Encoded date                             : UTC 2014-05-22 09:31:23
Writing application                      : mkvmerge v5.8.0 ('No Sleep / Pillow') built on Sep  2 2012 15:37:04
Writing library                          : libebml v1.2.3 + libmatroska v1.3.0

Video
ID                                       : 1
Format                                   : AVC
Format/Info                              : Advanced Video Codec
Format profile                           : High@L4.1
Format settings, CABAC                   : Yes
Format settings, ReFrames                : 4 frames
Codec ID                                 : V_MPEG4/ISO/AVC
Duration                                 : 3h 49mn
Bit rate                                 : 8 523 Kbps
Width                                    : 1 920 pixels
Height                                   : 1 080 pixels
Display aspect ratio                     : 16:9
Frame rate                               : 23.976 fps
Color space                              : YUV
Chroma subsampling                       : 4:2:0
Bit depth                                : 8 bits
Scan type                                : Progressive
Bits/(Pixel*Frame)                       : 0.171
Stream size                              : 13.2 GiB (57%)
Title                                    : Odnazhdy v Amerike.(1984).BDRip.1080p.[denis100]
Writing library                          : x264 core 138 r2358 9e941d1
Encoding settings                        : cabac=1 / ref=4 / deblock=1:-3:-3 / analyse=0x3:0x133 / me=umh / subme=11 / psy=1 / psy_rd=1.00:0.15 / mixed_ref=1 / me_range=48 / chroma_me=1 / trellis=2 / 8x8dct=1 / cqm=0 / deadzone=21,11 / fast_pskip=0 / chroma_qp_offset=-3 / threads=6 / lookahead_threads=1 / sliced_threads=0 / nr=0 / decimate=1 / interlaced=0 / bluray_compat=0 / constrained_intra=0 / bframes=8 / b_pyramid=2 / b_adapt=2 / b_bias=0 / direct=3 / weightb=1 / open_gop=0 / weightp=2 / keyint=240 / keyint_min=23 / scenecut=40 / intra_refresh=0 / rc=2pass / mbtree=0 / bitrate=8523 / ratetol=1.0 / qcomp=0.60 / qpmin=0 / qpmax=69 / qpstep=4 / cplxblur=20.0 / qblur=0.5 / ip_ratio=1.40 / pb_ratio=1.30 / aq=1:0.90
Language                                 : English
Default                                  : Yes
Forced                                   : No

Audio #1
ID                                       : 2
Format                                   : AC-3
Format/Info                              : Audio Coding 3
Mode extension                           : CM (complete main)
Codec ID                                 : A_AC3
Duration                                 : 3h 49mn
Bit rate mode                            : Constant
Bit rate                                 : 448 Kbps
Channel(s)                               : 6 channels
Channel positions                        : Front: L C R, Side: L R, LFE
Sampling rate                            : 48.0 KHz
Bit depth                                : 16 bits
Compression mode                         : Lossy
Stream size                              : 735 MiB (3%)
Title                                    : Многоголосый закадровый, НТВ+
Language                                 : Russian
Default                                  : Yes
Forced                                   : No

Audio #2
ID                                       : 3
Format                                   : AC-3
Format/Info                              : Audio Coding 3
Mode extension                           : CM (complete main)
Codec ID                                 : A_AC3
Duration                                 : 3h 49mn
Bit rate mode                            : Constant
Bit rate                                 : 192 Kbps
Channel(s)                               : 2 channels
Channel positions                        : Front: L R
Sampling rate                            : 48.0 KHz
Bit depth                                : 16 bits
Compression mode                         : Lossy
Stream size                              : 315 MiB (1%)
Title                                    : Авторский, О.Борисов
Language                                 : Russian
Default                                  : No
Forced                                   : No

Audio #3
ID                                       : 4
Format                                   : AC-3
Format/Info                              : Audio Coding 3
Mode extension                           : CM (complete main)
Codec ID                                 : A_AC3
Duration                                 : 3h 49mn
Bit rate mode                            : Constant
Bit rate                                 : 192 Kbps
Channel(s)                               : 2 channels
Channel positions                        : Front: L R
Sampling rate                            : 48.0 KHz
Bit depth                                : 16 bits
Compression mode                         : Lossy
Stream size                              : 315 MiB (1%)
Title                                    : Двухголосый закадровый, Конкин и тётя
Language                                 : Russian
Default                                  : No
Forced                                   : No

Audio #4
ID                                       : 5
Format                                   : AC-3
Format/Info                              : Audio Coding 3
Mode extension                           : CM (complete main)
Codec ID                                 : A_AC3
Duration                                 : 3h 49mn
Bit rate mode                            : Constant
Bit rate                                 : 640 Kbps
Channel(s)                               : 6 channels
Channel positions                        : Front: L C R, Side: L R, LFE
Sampling rate                            : 48.0 KHz
Bit depth                                : 16 bits
Compression mode                         : Lossy
Stream size                              : 1.03 GiB (4%)
Title                                    : Многоголосый закадровый, Позитив-Мультимедиа
Language                                 : Russian
Default                                  : No
Forced                                   : No

Audio #5
ID                                       : 6
Format                                   : AC-3
Format/Info                              : Audio Coding 3
Mode extension                           : CM (complete main)
Codec ID                                 : A_AC3
Duration                                 : 3h 49mn
Bit rate mode                            : Constant
Bit rate                                 : 448 Kbps
Channel(s)                               : 6 channels
Channel positions                        : Front: L C R, Side: L R, LFE
Sampling rate                            : 48.0 KHz
Bit depth                                : 16 bits
Compression mode                         : Lossy
Stream size                              : 735 MiB (3%)
Title                                    : Многоголосый закадровый, Карусель/Киномания
Language                                 : Russian
Default                                  : No
Forced                                   : No

Audio #6
ID                                       : 7
Format                                   : AC-3
Format/Info                              : Audio Coding 3
Mode extension                           : CM (complete main)
Codec ID                                 : A_AC3
Duration                                 : 3h 49mn
Bit rate mode                            : Constant
Bit rate                                 : 640 Kbps
Channel(s)                               : 6 channels
Channel positions                        : Front: L C R, Side: L R, LFE
Sampling rate                            : 48.0 KHz
Bit depth                                : 16 bits
Compression mode                         : Lossy
Stream size                              : 1.03 GiB (4%)
Title                                    : Двухголосый закадровый, П.Гланц и И.Королева
Language                                 : Russian
Default                                  : No
Forced                                   : No

Audio #7
ID                                       : 8
Format                                   : AC-3
Format/Info                              : Audio Coding 3
Mode extension                           : CM (complete main)
Codec ID                                 : A_AC3
Duration                                 : 3h 49mn
Bit rate mode                            : Constant
Bit rate                                 : 640 Kbps
Channel(s)                               : 6 channels
Channel positions                        : Front: L C R, Side: L R, LFE
Sampling rate                            : 48.0 KHz
Bit depth                                : 16 bits
Compression mode                         : Lossy
Stream size                              : 1.03 GiB (4%)
Title                                    : Авторский, Ю.Сербин
Language                                 : Russian
Default                                  : No
Forced                                   : No

Audio #8
ID                                       : 9
Format                                   : AC-3
Format/Info                              : Audio Coding 3
Mode extension                           : CM (complete main)
Codec ID                                 : A_AC3
Duration                                 : 3h 49mn
Bit rate mode                            : Constant
Bit rate                                 : 640 Kbps
Channel(s)                               : 6 channels
Channel positions                        : Front: L C R, Side: L R, LFE
Sampling rate                            : 48.0 KHz
Bit depth                                : 16 bits
Compression mode                         : Lossy
Stream size                              : 1.03 GiB (4%)
Title                                    : Авторский, Л.Володарский
Language                                 : Russian
Default                                  : No
Forced                                   : No

Audio #9
ID                                       : 10
Format                                   : AC-3
Format/Info                              : Audio Coding 3
Mode extension                           : CM (complete main)
Codec ID                                 : A_AC3
Duration                                 : 3h 49mn
Bit rate mode                            : Constant
Bit rate                                 : 640 Kbps
Channel(s)                               : 6 channels
Channel positions                        : Front: L C R, Side: L R, LFE
Sampling rate                            : 48.0 KHz
Bit depth                                : 16 bits
Compression mode                         : Lossy
Stream size                              : 1.03 GiB (4%)
Title                                    : Авторский, Ю.Живов
Language                                 : Russian
Default                                  : No
Forced                                   : No

Audio #10
ID                                       : 11
Format                                   : AC-3
Format/Info                              : Audio Coding 3
Mode extension                           : CM (complete main)
Codec ID                                 : A_AC3
Duration                                 : 3h 49mn
Bit rate mode                            : Constant
Bit rate                                 : 192 Kbps
Channel(s)                               : 2 channels
Channel positions                        : Front: L R
Sampling rate                            : 48.0 KHz
Bit depth                                : 16 bits
Compression mode                         : Lossy
Stream size                              : 315 MiB (1%)
Title                                    : Авторский, А.Гаврилов (ранний перевод)
Language                                 : Russian
Default                                  : No
Forced                                   : No

Audio #11
ID                                       : 12
Format                                   : AC-3
Format/Info                              : Audio Coding 3
Mode extension                           : CM (complete main)
Codec ID                                 : A_AC3
Duration                                 : 3h 49mn
Bit rate mode                            : Constant
Bit rate                                 : 192 Kbps
Channel(s)                               : 2 channels
Channel positions                        : Front: L R
Sampling rate                            : 48.0 KHz
Bit depth                                : 16 bits
Compression mode                         : Lossy
Stream size                              : 315 MiB (1%)
Title                                    : Авторский, А.Гаврилов (поздний перевод)
Language                                 : Russian
Default                                  : No
Forced                                   : No

Audio #12
ID                                       : 13
Format                                   : AC-3
Format/Info                              : Audio Coding 3
Mode extension                           : CM (complete main)
Codec ID                                 : A_AC3
Duration                                 : 3h 49mn
Bit rate mode                            : Constant
Bit rate                                 : 192 Kbps
Channel(s)                               : 2 channels
Channel positions                        : Front: L R
Sampling rate                            : 48.0 KHz
Bit depth                                : 16 bits
Compression mode                         : Lossy
Stream size                              : 315 MiB (1%)
Title                                    : Авторский, А.Михалев
Language                                 : Russian
Default                                  : No
Forced                                   : No

Audio #13
ID                                       : 14
Format                                   : AC-3
Format/Info                              : Audio Coding 3
Mode extension                           : CM (complete main)
Codec ID                                 : A_AC3
Duration                                 : 3h 49mn
Bit rate mode                            : Constant
Bit rate                                 : 192 Kbps
Channel(s)                               : 2 channels
Channel positions                        : Front: L R
Sampling rate                            : 48.0 KHz
Bit depth                                : 16 bits
Compression mode                         : Lossy
Stream size                              : 315 MiB (1%)
Title                                    : Авторский, В.Горчаков
Language                                 : Russian
Default                                  : No
Forced                                   : No

Audio #14
ID                                       : 15
Format                                   : AC-3
Format/Info                              : Audio Coding 3
Mode extension                           : CM (complete main)
Codec ID                                 : A_AC3
Duration                                 : 3h 49mn
Bit rate mode                            : Constant
Bit rate                                 : 640 Kbps
Channel(s)                               : 6 channels
Channel positions                        : Front: L C R, Side: L R, LFE
Sampling rate                            : 48.0 KHz
Bit depth                                : 16 bits
Compression mode                         : Lossy
Stream size                              : 1.03 GiB (4%)
Title                                    : English
Language                                 : English
Default                                  : No
Forced                                   : No

Text #1
ID                                       : 16
Format                                   : UTF-8
Codec ID                                 : S_TEXT/UTF8
Codec ID/Info                            : UTF-8 Plain Text
Title                                    : Russian
Language                                 : Russian
Default                                  : No
Forced                                   : No

Text #2
ID                                       : 17
Format                                   : UTF-8
Codec ID                                 : S_TEXT/UTF8
Codec ID/Info                            : UTF-8 Plain Text
Title                                    : English. SDH
Language                                 : English
Default                                  : No
Forced                                   : No

Menu
00:00:00.000                             : en:00:00:00.000
00:02:23.351                             : en:00:02:23.351
00:05:44.677                             : en:00:05:44.677
00:11:29.855                             : en:00:11:29.855
00:13:45.825                             : en:00:13:45.825
00:18:04.208                             : en:00:18:04.208
00:20:05.203                             : en:00:20:05.203
00:21:57.274                             : en:00:21:57.274
00:25:09.883                             : en:00:25:09.883
00:35:03.267                             : en:00:35:03.267
00:41:40.206                             : en:00:41:40.206
00:43:40.743                             : en:00:43:40.743
00:44:46.975                             : en:00:44:46.975
00:46:23.697                             : en:00:46:23.697
00:48:56.683                             : en:00:48:56.683
00:52:33.108                             : en:00:52:33.108
00:55:47.469                             : en:00:55:47.469
01:00:05.476                             : en:01:00:05.476
01:03:44.862                             : en:01:03:44.862
01:07:50.775                             : en:01:07:50.775
01:11:03.300                             : en:01:11:03.300
01:16:19.574                             : en:01:16:19.574
01:21:30.677                             : en:01:21:30.677
01:24:06.332                             : en:01:24:06.332
01:27:19.984                             : en:01:27:19.984
01:29:32.867                             : en:01:29:32.867
01:33:47.455                             : en:01:33:47.455
01:36:12.933                             : en:01:36:12.933
01:38:21.604                             : en:01:38:21.604
01:44:06.323                             : en:01:44:06.323
01:47:50.881                             : en:01:47:50.881
01:53:18.625                             : en:01:53:18.625
01:56:31.067                             : en:01:56:31.067
01:58:27.141                             : en:01:58:27.141
02:00:15.249                             : en:02:00:15.249
02:02:54.950                             : en:02:02:54.950
02:05:33.734                             : en:02:05:33.734
02:11:00.644                             : en:02:11:00.644
02:18:38.518                             : en:02:18:38.518
02:26:21.105                             : en:02:26:21.105
02:31:31.082                             : en:02:31:31.082
02:33:41.086                             : en:02:33:41.086
02:38:49.061                             : en:02:38:49.061
02:40:27.993                             : en:02:40:27.993
02:41:29.680                             : en:02:41:29.680
02:47:37.088                             : en:02:47:37.088
02:49:39.669                             : en:02:49:39.669
02:54:23.286                             : en:02:54:23.286
02:59:03.733                             : en:02:59:03.733
03:03:24.660                             : en:03:03:24.660
03:08:16.535                             : en:03:08:16.535
03:12:01.551                             : en:03:12:01.551
03:17:11.736                             : en:03:17:11.736
03:23:48.966                             : en:03:23:48.966
03:25:49.086                             : en:03:25:49.086
03:31:45.692                             : en:03:31:45.692
03:37:44.384                             : en:03:37:44.384
03:41:29.526                             : en:03:41:29.526
03:44:31.666                             : en:03:44:31.666

x264 [info]: frame I:1818 Avg QP:19.60 size:142545
x264 [info]: frame P:89712 Avg QP:21.91 size: 76244
x264 [info]: frame B:238376 Avg QP:23.53 size: 31710
pb.wtf



Скачать Однажды в Америке через торрент http://i64.fastpic.ru/big/2014/1215/14/3fc84d36b605a0358a1739a667a6d314.png Скачать фильм Однажды в Америке через торрент бесплантно в хорошем качестве Описание::В бурные двадцатые годы, когда Америка веселилась под звуки джаза и каждый бродяга мечтал стать миллионером, в трущобах Нью-Йорка ... 9.9 10 9
Info! Золотая раздача, скачанное не засчитывается.
Торрент: Зарегистрирован [2014-12-15 14:49] · скачан: 138 раз
Статус: √ проверено
Размер: 23.09 GB
Как cкачать? Как скачать Однажды в Америке через торрент | qTorrent

% Раздел Тема Автор DL S | L
Фильмы [HD 720p, 1080p] (Хороший звук DUB, MVO) [ 4.74 GB ] Однажды в Америке / Once Upon a Time in America / Extended Director's Cut [1984 BDRip 1080p-HEVC 10bit ] ADVOKAT69 Скачать
3 | 0
Сборники (HD Video) [ 24.83 GB ] Однажды в Америке / Once Upon a Time in America [Серджио Леоне] [1984 BDRip 720p] Romeo0502 Скачать
1 | 0
Фильмы [HD 720p, 1080p] (Хороший звук DUB, MVO) [ 11 GB ] Однажды в Америке / Once Upon a Time in America [1983 история BDRip ] galysha Скачать
1 | 0
Фильмы (HD 720p, 1080p) (48-60 fps) [ 8.91 GB ] Однажды в Америке / Once Upon a Time in America [1983 BDRip 720p] AVO slaventi-69 Скачать
3 | 0
Фильмы (Blu-ray, BD-Remux, HDDVD) [ 41.25 GB ] Однажды в Америке / Once Upon a Time in America [1984 ьная BDRemux 1080p] MVO Ворон Скачать
1 | 0
Классика зарубежного кино [ 3.95 GB ] Однажды в Америке / Once Upon a Time in America [1984 г BDRip ]MVO -=Cherry=- Скачать
2 | 0
Классика зарубежного кино [ 2.92 GB ] Однажды в Америке / Once Upon a Time in America [1984 Гангстерский / DVDRip] nicadimas Скачать
1 | 0

28-11-2019 20:33  

Отключить всю рекламу на сайте

13-05-2018 16:11 Однажды в Америке Скачать торрент  

pb.wtf



13-05-2018 16:12 Однажды в Америке Скачать торрент  

_denis_100, Спасибо ,что держишь такие фильмы pb.wtf



    Дорогой пользователь! Огромная просьба, поблагодарите релизера, оцените раздачу и оставьте свои комментарий, если Вы скачали Однажды в Америке через торрент бесплатно! Внесите свою лепту в развитие PiratBit!
    Комментировать посты могут только пользователи прошедшие не сложную регистрацию
    Показать сообщения:    

    Однажды в Америке через торрент
    Скачать бесплатно Однажды в Америке
    Однажды в Америке скачать торрент
    Однажды в Америке смотреть онлайн
    Cкачать фильм Однажды в Америке бесплатно
    Однажды в Америке скачать торрент в хорошем качестве
    Однажды в Америке смотреть онлайн бесплатно в хорошем качестве


    Вы не можете начинать темы
    Вы не можете отвечать на сообщения
    Вы не можете редактировать свои сообщения
    Вы не можете удалять свои сообщения
    Вы не можете голосовать в опросах
    Вы не можете прикреплять файлы к сообщениям
    Вы можете скачивать файлы