Ссылка на приватное зеркало нашего сайта всего за 1$. Внимание количество ограничено!!!

2 сезон

iTunes

1 сезон

1

iTunes

iTunes

iTunes

1 сезон

RePack

30

ИГРА 18+

pack

ВАЖНО

!!Акция!!

Alien_RageХит недели

RePack

MK11
pack

Забери бонус

RePack

jed

!!Акция!!

Alien_Rage

RePack

fifa19

RePack

Assassins Creed: Odyssey

RePack

NEED FOR SPEED™ PAYBACK

4 сезон

9 сезон

Бесстыжие 9 сезон

Все сериалы

все сериалы на PB.wtf

RePack

FAR CRY 5
  

Вся президентская рать / All the President's Men (Алан Дж. Пакула) [1976, триллер, драма, детектив, история, BDRip 1080p] 2 x MVO, AVO pb.wtf

Вся президентская рать через торрент pb.wtf

Размер: 18.72 GB | Добавлен: 5 лет 10 мес. назад | Торрент скачан:5 раз
Скачать  

17-12-2014 05:16 Вся президентская рать Скачать торрент  

Вся президентская рать / All the President's Men

Год выпуска: 1976
Страна: США
Жанр: триллер, драма, детектив, история
Продолжительность: 02:18:21
Перевод: профессиональный многоголосый, авторский
Субтитры: английские

Режиссёр: Алан Дж. Пакула

В ролях: Дастин Хоффман, Роберт Редфорд, Джек Уорден, Мартин Болсам, Хэл Холбрук, Джейсон Робардс, Джейн Александер (I), Мередит Бакстер, Нед Битти, Стивен Коллинз, Пенни Фуллер, Джон МакМартин, Роберт Уолден, Фрэнк Уиллс, Ф. Мюррэй Абрахам, Дэвид Аркин, Генри Кэлверт

Описание: С того момента как репортеры «Вашингтон пост» наткнулись на эту историю, мир замер в ожидании. «Уотергейт» свалил всех - президента Никсона, сенаторов, дипломатов - и окончательно развеял доверие американцев к своему правительству. Этот фильм основан на документальных материалах журналистов Боба Вудворда и Карла Бёрнстина из газеты «Вашингтон Пост».



Качество: BDRip 1080p Сравнение с исходником
Формат: MKV
Видео кодек: H.264
Аудио кодек: AC3, DTS
Видео: 1920x1080, 17.7 Mbps, 23.976 кадра/с, 0.355 bpp
Аудио 1: русский, AC3, 192 kbps, 2 ch, 48 kHz [профессиональный многоголосый, R5]
Аудио 2: русский, AC3, 192 kbps, 2 ch, 48 kHz [профессиональный многоголосый, Варус видео]
Аудио 3: русский, AC3, 448 kbps, 6 ch, 48 kHz [авторский, Пётр Карцев]
Аудио 4: английский, DTS, 768 kbps, 2 ch, 48 kHz [оригинал]

Имеются поименованные главы/чаптеры.
3 приза Национального совета обозревателей — за лучший англоязычный фильм, режиссуру и второплановую мужскую роль (Джейсон Робардс).

Оскар, 1977 год
Победитель (4):
Лучшая мужская роль второго плана (Джейсон Робардс)
Лучший адаптированный сценарий
Лучшие декорации
Лучший звук

Номинации (4):
Лучший фильм
Лучшая женская роль второго плана (Джейн Александр)
Лучший режиссер (Алан Дж. Пакула)
Лучший монтаж

Золотой глобус, 1977 год
Номинации (4):
Лучший фильм (драма)
Лучшая мужская роль второго плана (Джейсон Робардс)
Лучший режиссер (Алан Дж. Пакула)
Лучший сценарий

Британская академия, 1977 год
Номинации (10):
Лучший фильм
Лучшая мужская роль (Дастин Хоффман)
Лучшая мужская роль второго плана (Мартин Болсам)
Лучшая мужская роль второго плана (Джейсон Робардс)
Лучший режиссер (Алан Дж. Пакула)
Лучший сценарий
Лучшая работа оператора
Лучшая работа художника-постановщика
Лучший саундтрек
Лучший монтаж
Общее
Уникальный идентификатор : 184840137424289960441792256716823476609 (0x8B0EEA621341FC0C8A8F2696C5723981)
Полное имя : D:VideoVsja prezidentskaja rat.1976.BDRip.1080p.mkv
Формат : Matroska
Версия формата : Version 4 / Version 2
Размер файла : 18,7 Гбайт
Продолжительность : 2 ч. 18 м.
Общий поток : 19,4 Мбит/сек
Дата кодирования : UTC 2014-12-17 01:11:28
Программа кодирования : mkvmerge v7.4.0 ('Circles') 64bit built on Dec 12 2014 12:19:56
Библиотека кодирования : libebml v1.3.0 + libmatroska v1.4.1
_STATISTICS_WRITING_APP : mkvmerge v7.4.0 ('Circles') 64bit built on Dec 12 2014 12:19:56
_STATISTICS_WRITING_DATE_UTC : 2014-12-17 01:11:28
_STATISTICS_TAGS : BPS DURATION NUMBER_OF_FRAMES NUMBER_OF_BYTES
DURATION : 02:18:21.803000000
NUMBER_OF_FRAMES : 778294
NUMBER_OF_BYTES : 796973168

Видео
Идентификатор : 1
Формат : AVC
Формат/Информация : Advanced Video Codec
Профиль формата : High@L4.1
Параметр CABAC формата : Да
Параметр ReFrames формата : 4 кадра
Идентификатор кодека : V_MPEG4/ISO/AVC
Продолжительность : 2 ч. 18 м.
Битрейт : 17,7 Мбит/сек
Ширина : 1920 пикселей
Высота : 1080 пикселей
Соотношение сторон : 16:9
Режим частоты кадров : Постоянный
Частота кадров : 23,976 кадра/сек
Цветовое пространство : YUV
Субдискретизация насыщенности : 4:2:0
Битовая глубина : 8 бит
Тип развёртки : Прогрессивная
Бит/(Пиксели*Кадры) : 0.355
Размер потока : 17,1 Гбайт (91%)
Заголовок : BDRip -- STarankov
Библиотека кодирования : x264 core 142 r2431 ac76440
Настройки программы : cabac=1 / ref=4 / deblock=1:-1:-1 / analyse=0x3:0x113 / me=umh / subme=10 / psy=1 / psy_rd=1.00:0.15 / mixed_ref=1 / me_range=32 / chroma_me=1 / trellis=2 / 8x8dct=1 / cqm=0 / deadzone=21,11 / fast_pskip=1 / chroma_qp_offset=-3 / threads=6 / lookahead_threads=1 / sliced_threads=0 / nr=0 / decimate=1 / interlaced=0 / bluray_compat=0 / constrained_intra=0 / bframes=8 / b_pyramid=2 / b_adapt=2 / b_bias=0 / direct=3 / weightb=1 / open_gop=0 / weightp=2 / keyint=230 / keyint_min=23 / scenecut=40 / intra_refresh=0 / rc_lookahead=40 / rc=crf / mbtree=0 / crf=19.0 / qcomp=0.60 / qpmin=0 / qpmax=69 / qpstep=4 / vbv_maxrate=50000 / vbv_bufsize=62500 / crf_max=0.0 / nal_hrd=none / filler=0 / ip_ratio=1.40 / pb_ratio=1.30 / aq=1:1.00
Язык : English
Default : Да
Forced : Нет
DURATION : 02:18:21.794000000
NUMBER_OF_FRAMES : 199044
NUMBER_OF_BYTES : 18735097033
_STATISTICS_WRITING_APP : mkvmerge v7.4.0 ('Circles') 64bit built on Dec 12 2014 12:19:56
_STATISTICS_WRITING_DATE_UTC : 2014-12-17 01:11:28
_STATISTICS_TAGS : BPS DURATION NUMBER_OF_FRAMES NUMBER_OF_BYTES

Аудио #1
Идентификатор : 2
Формат : AC-3
Формат/Информация : Audio Coding 3
Расширение режима : CM (complete main)
Параметр Endianness формата : Big
Идентификатор кодека : A_AC3
Продолжительность : 2 ч. 18 м.
Вид битрейта : Постоянный
Битрейт : 192 Кбит/сек
Каналы : 2 канала
Расположение каналов : Front: L R
Частота : 48,0 КГц
Битовая глубина : 16 бит
Метод сжатия : С потерями
Размер потока : 190 Мбайт (1%)
Заголовок : MVO (R5)
Язык : Russian
Default : Да
Forced : Нет

Аудио #2
Идентификатор : 3
Формат : AC-3
Формат/Информация : Audio Coding 3
Расширение режима : CM (complete main)
Параметр Endianness формата : Big
Идентификатор кодека : A_AC3
Продолжительность : 2 ч. 18 м.
Вид битрейта : Постоянный
Битрейт : 192 Кбит/сек
Каналы : 2 канала
Расположение каналов : Front: L R
Частота : 48,0 КГц
Битовая глубина : 16 бит
Метод сжатия : С потерями
Размер потока : 190 Мбайт (1%)
Заголовок : MVO (Варус видео)
Язык : Russian
Default : Нет
Forced : Нет

Аудио #3
Идентификатор : 4
Формат : AC-3
Формат/Информация : Audio Coding 3
Расширение режима : CM (complete main)
Параметр Endianness формата : Big
Идентификатор кодека : A_AC3
Продолжительность : 2 ч. 18 м.
Вид битрейта : Постоянный
Битрейт : 160 Кбит/сек
Каналы : 2 канала
Расположение каналов : Front: L R
Частота : 48,0 КГц
Битовая глубина : 16 бит
Метод сжатия : С потерями
Размер потока : 158 Мбайт (1%)
Заголовок : AVO (Пётр Карцев)
Язык : Russian
Default : Нет
Forced : Нет

Аудио #4
Идентификатор : 5
Формат : DTS
Формат/Информация : Digital Theater Systems
Режим : 16
Параметр Endianness формата : Big
Идентификатор кодека : A_DTS
Продолжительность : 2 ч. 18 м.
Вид битрейта : Постоянный
Битрейт : 768 Кбит/сек
Каналы : 2 канала
Расположение каналов : Front: L R
Частота : 48,0 КГц
Битовая глубина : 24 бит
Метод сжатия : С потерями
Размер потока : 760 Мбайт (4%)
Заголовок : Original
Язык : English
Default : Нет
Forced : Нет

Текст
Идентификатор : 6
Формат : UTF-8
Идентификатор кодека : S_TEXT/UTF8
Идентификатор кодека/Информация : UTF-8 Plain Text
Заголовок : английский
Язык : English
Default : Нет
Forced : Нет

Меню
00:00:00.000 : en:The President Arrives
00:02:12.132 : en:Burglary Discovered
00:06:48.616 : en:Post Night Shift
00:08:06.736 : en:The Arrangement
00:12:18.988 : en:H.H. at W.H.
00:18:06.794 : en:Whose Story Is It?
00:20:04.536 : en:Editorial Help
00:23:26.154 : en:Hunt's Taste in Books
00:30:32.622 : en:Harder Information Needed
00:33:29.966 : en:Deep Throat
00:40:59.790 : en:Down to Dade Countyv
00:46:50.265 : en:Money Trail
00:54:17.629 : en:Budget Meeting
00:58:32.467 : en:No Luck? Get Some.
01:00:57.528 : en:Committee to Relfect
01:07:57.948 : en:The Way They're Not Talking
01:13:48.298 : en:The Bookkeeper
01:21:20.625 : en:Alphabet Soup
01:27:31.246 : en:Slush-Fund Overseers
01:31:25.188 : en:"Just Be Sure You're Right"
01:32:22.203 : en:Mitchell Responds
01:34:05.723 : en:Matter of Trust
01:38:34.116 : en:Plot Before Watergate: Segrettiv
01:43:45.052 : en:"of Course Mitchell Knew"
01:49:00.158 : en:Deputy Director Was Indiscreet
01:53:30.428 : en:Nailing the Fifth Man
02:00:53.537 : en:Attacks From High Placesv
02:05:30.397 : en:"Your Lives Are in Danger"
02:10:55.556 : en:What's Riding on This
02:12:05.917 : en:Inauguration Day
02:15:09.768 : en:Across the Teletype
02:16:38.190 : en:End Credits
pb.wtf



Скачать Вся президентская рать через торрент http://i63.fastpic.ru/big/2014/1215/fa/a561a1fcea907432b567fa22c9f020fa.jpg Скачать фильм Вся президентская рать через торрент бесплантно в хорошем качестве Описание: С того момента как репортеры «Вашингтон пост» наткнулись на эту историю, мир замер в ожидании. «Уотергейт» свалил всех - ... 8 10 3
Info! Золотая раздача, скачанное не засчитывается.
Торрент: Зарегистрирован [2014-12-17 05:16] · скачан: 5 раз
Статус: √ проверено
Размер: 18.72 GB
Как cкачать? Как скачать Вся президентская рать через торрент | qTorrent

28-11-2019 20:33  

Отключить всю рекламу на сайте

    Дорогой пользователь! Огромная просьба, поблагодарите релизера, оцените раздачу и оставьте свои комментарий, если Вы скачали Вся президентская рать через торрент бесплатно! Внесите свою лепту в развитие PiratBit!
    Комментировать посты могут только пользователи прошедшие не сложную регистрацию
    Показать сообщения:    

    Вся президентская рать через торрент
    Скачать бесплатно Вся президентская рать
    Вся президентская рать скачать торрент
    Вся президентская рать смотреть онлайн
    Cкачать фильм Вся президентская рать бесплатно
    Вся президентская рать скачать торрент в хорошем качестве
    Вся президентская рать смотреть онлайн бесплатно в хорошем качестве


    Вы не можете начинать темы
    Вы не можете отвечать на сообщения
    Вы не можете редактировать свои сообщения
    Вы не можете удалять свои сообщения
    Вы не можете голосовать в опросах
    Вы не можете прикреплять файлы к сообщениям
    Вы можете скачивать файлы