Ссылка на приватное зеркало нашего сайта всего за 1$. Внимание количество ограничено!!!

2 сезон

iTunes

1 сезон

1

2 сезон

2 сезон

iTunes

1 сезон

RePack

30

Новинка

ВАЖНО

ИГРА 18+

pack

RePack

MK11
pack

Забери бонус

RePack

jed

!!Акция!!

Alien_Rage

RePack

fifa19

RePack

Assassins Creed: Odyssey

RePack

NEED FOR SPEED™ PAYBACK

4 сезон

9 сезон

Бесстыжие 9 сезон

Все сериалы

все сериалы на PB.wtf

RePack

FAR CRY 5
  

Марко Поло / Marco Polo / Сезон: 1 / Серии: 10 из 10 (Дэвид Петрарка, Алик Сахаров, Хоаким Роннинг) [2014, приключения, WEBRip] MVO (NewStudio) + Original pb.wtf

Марко Поло через торрент pb.wtf

Размер: 6.84 GB | Добавлен: 5 лет 11 мес. назад | Торрент скачан:375 раз
Скачать  

17-12-2014 09:50 Марко Поло Скачать торрент  

Марко Поло / Marco Polo
Год выпуска: 2014
Страна: США
Продолжительность: 00:51:10
Перевод: Профессиональный многоголосый

Режиссер: Дэвид Петрарка, Алик Сахаров, Хоаким Роннинг



В ролях: Чин Хань, Махеш Джаду, Shu An Oon, Лоренцо Рикельми, Ерден Телемисов, Vanessa Vanderstraaten, Рик Юн, Nicholas Bloodworth, Fish Chaar, Джоан Чэнь

Описание: Сюжет сериала основан на приключениях знаменитого исследователя Марко Поло в Китае в 13-м веке.

Качество: WEB-DLRip
Формат: AVI
Видео кодек: XviD
Аудио кодек: MP3
Видео: 720x360 (2.000), 23.976 fps, 1 507 Kbps (0.242 bit/pixel)
Аудио#1: Rus: MPEG Audio Layer 3 2 канала 48,0 КГц 128 Кбит/сек
Аудио#2: Eng: MPEG Audio Layer 3 2 канала 48,0 КГц 128 Кбит/сек

Добавлены 9-10 серии
Внимание! Раздача ведётся путём добавления новых серий; при каждом добавлении создаётся новый торрент. Чтобы начать докачку новой серии, пользователям необходимо сделать следующее:
(1) остановить скачивание,
(2) удалить старый торрент у себя из клиента (старые серии удалять не надо),
(3) скачать новый торрент и запустить его у себя в клиенте вместо старого, при этом указать клиенту путь в старую папку куда и должно происходить скачивание новых серий.

Ваш клиент при этом должен произвести хеширование (проверку) старой папки (если не производит сам - помогите ему сделать это), и будет докачивать только те серии которых у вас ещё нет. Старые серии при этом не удаляются, а продолжают раздаваться!

Eсли вы уже удалили старые серии, то предотвратить повторную закачку старых серий можно, отжав галочку в соответствующих местах при запуске нового торрента. По возможности, желательно не удалять старые серии как можно дольше чтобы релизёр не столько продолжал раздавать старые серии, а смог сконцентрироваться на новых.

Общее
Полное имя : H:\Марко Поло\Marco.Polo.2014.s01.WEBRip.NewStudio\Marco.Polo.2014.s01e01.WEBRip.Rus.Eng.NewStudio.avi
Формат : AVI
Формат/Информация : Audio Video Interleave
Размер файла : 650 Мбайт
Продолжительность : 51 м.
Общий поток : 1776 Кбит/сек
Программа кодирования : VirtualDubMod 1.5.10.3 (build 2550/release)
Библиотека кодирования : VirtualDubMod build 2550/release

Видео
Идентификатор : 0
Формат : MPEG-4 Visual
Профиль формата : Advanced Simple@L5
Параметр BVOP формата : 1
Параметр QPel формата : Нет
Параметр GMC формата : Без точки перехода
Параметр матрицы формата : Default (H.263)
Идентификатор кодека : XVID
Идентификатор кодека/Подсказка : XviD
Продолжительность : 51 м.
Битрейт : 1507 Кбит/сек
Ширина : 720 пикселей
Высота : 360 пикселей
Соотношение сторон : 2,000
Частота кадров : 23,976 кадра/сек
Цветовое пространство : YUV
Субдискретизация насыщенности : 4:2:0
Битовая глубина : 8 бит
Тип развёртки : Прогрессивная
Метод сжатия : С потерями
Бит/(Пиксели*Кадры) : 0.242
Размер потока : 552 Мбайт (85%)
Библиотека кодирования : XviD 1.2.1 (UTC 2008-12-04)

Аудио #1
Идентификатор : 1
Формат : MPEG Audio
Версия формата : Version 1
Профиль формата : Layer 3
Режим : Joint stereo
Расширение режима : MS Stereo
Идентификатор кодека : 55
Идентификатор кодека/Подсказка : MP3
Продолжительность : 51 м.
Вид битрейта : Постоянный
Битрейт : 128 Кбит/сек
Каналы : 2 канала
Частота : 48,0 КГц
Метод сжатия : С потерями
Размер потока : 46,8 Мбайт (7%)
Выравнивание : Соединение по промежуткам
Продолжительность промежутка : 42 мс. (1,00 видеокадр)
Время предзагрузки промежутка : 504 мс.

Аудио #2
Идентификатор : 2
Формат : MPEG Audio
Версия формата : Version 1
Профиль формата : Layer 3
Идентификатор кодека : 55
Идентификатор кодека/Подсказка : MP3
Продолжительность : 51 м.
Вид битрейта : Постоянный
Битрейт : 128 Кбит/сек
Каналы : 2 канала
Частота : 48,0 КГц
Метод сжатия : С потерями
Размер потока : 46,8 Мбайт (7%)
Выравнивание : Соединение по промежуткам
Продолжительность промежутка : 42 мс. (1,00 видеокадр)
Время предзагрузки промежутка : 504 мс.
Библиотека кодирования : LAME3.99r
Настройки программы : -m s -V 4 -q 2 -lowpass 17 -b 128


Марко Поло скачать торрент


pb.wtf



Скачать Марко Поло через торрент http://pic.kartinco.top/images/8/a4c6i.jpg Скачать фильм Марко Поло через торрент бесплантно в хорошем качестве Описание: Сюжет сериала основан на приключениях знаменитого исследователя Марко Поло в Китае в 13-м ... 9.9 10 17
Info! Золотая раздача, скачанное не засчитывается.
Торрент: Зарегистрирован [2014-12-18 08:12] · скачан: 375 раз
Статус: √ проверено
Размер: 6.84 GB
Как cкачать? Как скачать Марко Поло через торрент | qTorrent

% Раздел Тема Автор DL S | L
Зарубежные сериалы [ 15.23 GB ] Марко Поло / Marco Polo / Сезон: 1/ Серии: 1-10 из 10 [2014 WEBRip 720p] MVO [AlexFilm] + Original Messa-fan Скачать
1 | 0
Зарубежные сериалы [ 6.56 GB ] Марко Поло / Marco Polo / Сезон: 1/ Серии: 1-10 из 10 [2014 WEBRip ] MVO [AlexFilm] + Original Assasinca Скачать
1 | 0

28-11-2019 20:33  

Отключить всю рекламу на сайте

18-12-2014 15:48 Марко Поло Скачать торрент  

Норм сериал, надеюсь не растянется на 10 сезонов чтоб впечатление не портить ) Автору спасибо.pb.wtf



18-12-2014 16:40 Марко Поло Скачать торрент  

mihail:) писал(а):

Норм сериал, надеюсь не растянется на 10 сезонов чтоб впечатление не портить ) Автору спасибо.

pb.wtf



12-03-2015 23:19 Марко Поло Скачать торрент  

pb.wtf



    Дорогой пользователь! Огромная просьба, поблагодарите релизера, оцените раздачу и оставьте свои комментарий, если Вы скачали Марко Поло через торрент бесплатно! Внесите свою лепту в развитие PiratBit!
    Комментировать посты могут только пользователи прошедшие не сложную регистрацию
    Показать сообщения:    

    Марко Поло через торрент
    Скачать бесплатно Марко Поло
    Марко Поло скачать торрент
    Марко Поло смотреть онлайн
    Cкачать фильм Марко Поло бесплатно
    Марко Поло скачать торрент в хорошем качестве
    Марко Поло смотреть онлайн бесплатно в хорошем качестве


    Вы не можете начинать темы
    Вы не можете отвечать на сообщения
    Вы не можете редактировать свои сообщения
    Вы не можете удалять свои сообщения
    Вы не можете голосовать в опросах
    Вы не можете прикреплять файлы к сообщениям
    Вы можете скачивать файлы