Ссылка на приватное зеркало нашего сайта всего за 1$. Внимание количество ограничено!!!

2 сезон

iTunes

1 сезон

1

iTunes

iTunes

iTunes

1 сезон

RePack

30

ИГРА 18+

pack

ВАЖНО

!!Акция!!

Alien_RageХит недели

RePack

MK11
pack

Забери бонус

RePack

jed

!!Акция!!

Alien_Rage

RePack

fifa19

RePack

Assassins Creed: Odyssey

RePack

NEED FOR SPEED™ PAYBACK

4 сезон

9 сезон

Бесстыжие 9 сезон

Все сериалы

все сериалы на PB.wtf

RePack

FAR CRY 5
  

Бегущий в лабиринте / The Maze Runner (Уэс Болл ) [2014, фантастика, триллер, приключения, BDRip 720p, Дубляж - [Лицензия ] pb.wtf

Бегущий в лабиринте через торрент pb.wtf

Размер: 6.5 GB | Добавлен: 5 лет 10 мес. назад | Торрент скачан:788 раз
Скачать  

18-12-2014 04:53 Бегущий в лабиринте Скачать торрент  

Информация о фильме

Название: Бегущий в лабиринте

Оригинальное название: The Maze Runner

Год выхода: 2014

Страна: США, Великобритания, Канада

Продолжительность: 01:53:26

Перевод: Профессиональный (дублированный) Лицензия

Субтитры: Rus, Ukr, Eng

Жанр: фантастика

Режиссер: Уэс Болл / Wes Ball

В ролях: Дилан О’Брайен, Томас Сэнгстер, Кая Скоделарио, Уилл Поултер, Ки Хонг Ли, Блейк Купер, Амл Амин, Алекс Дж. Флорес, Джейкоб Латимор, Патришия Кларксон

Описание:

Главный герой — подросток Томас, который просыпается в лифте, но ничего не помнит, кроме своего имени. Он оказывается среди 60 подростков, научившихся выживать в замкнутом пространстве. Раз в 30 дней прибывает новый мальчик. Группа ребят проживает в «Приюте» уже три года. Они кормятся тем, что удается вырастить на земле, и пытаются найти выход из лабиринта, окружающего их место жительства. Но однажды появляется девочка в состоянии комы…

Файл

Качество: BDRip 720p
Формат:MKV
Видео кодек: AVC
Аудио кодек: DTS
Видео: MPEG-4 AVC, 5764 Кбит/с, 1280x534, 23,976 fps
Звук: Rus, DTS, 768 kb/s (6 ch), 48 kHz
Звук: Eng, DTS, 1510 kb/s (6 ch), 48 kHz

Семпл
General
Unique ID : 189949681629404177678561644456881394907 (0x8EE6FA5CBEEF22BAB7AEADF301F394DB)
Complete name : The.Maze.Runner.2014.720p.BluRay.DTS.Rus.Ukr.2xEng.HDCLUB.mkv
Format : Matroska
Format version : Version 2
File size : 6.77 GiB
Duration : 1h 53mn
Overall bit rate : 8 545 Kbps
Movie name : The Maze Runner (2014) - Release for HDCLUB
Encoded date : UTC 2014-12-17 22:53:23
Writing application : mkvmerge v3.4.0 ('Rapunzel') built on May 15 2010 09:38:20
Writing library : libebml v0.8.0 + libmatroska v0.9.0
Attachment : Yes / Yes / Yes

Video
ID : 1
Format : AVC
Format/Info : Advanced Video Codec
Format profile : High@L4.1
Format settings, CABAC : Yes
Format settings, ReFrames : 12 frames
Codec ID : V_MPEG4/ISO/AVC
Duration : 1h 53mn
Bit rate : 5 850 Kbps
Width : 1 280 pixels
Height : 534 pixels
Display aspect ratio : 2.40:1
Frame rate mode : Constant
Frame rate : 23.976 fps
Color space : YUV
Chroma subsampling : 4:2:0
Bit depth : 8 bits
Scan type : Progressive
Bits/(Pixel*Frame) : 0.357
Stream size : 4.50 GiB (66%)
Title : The Maze Runner (2014) - Release for HDCLUB
Writing library : x264 core 142 r2431+42 c69a006 tMod [8-bit@all X86_64]
Encoding settings : cabac=1 / ref=12 / deblock=1:-3:-3 / analyse=0x3:0x133 / me=tesa / subme=9 / psy=1 / fade_compensate=0.00 / psy_rd=1.00:0.05 / mixed_ref=1 / me_range=32 / chroma_me=1 / trellis=2 / 8x8dct=1 / cqm=0 / deadzone=21,11 / fast_pskip=0 / chroma_qp_offset=-3 / threads=6 / lookahead_threads=1 / sliced_threads=0 / nr=0 / decimate=1 / interlaced=0 / bluray_compat=0 / constrained_intra=0 / fgo=0 / bframes=12 / b_pyramid=2 / b_adapt=2 / b_bias=0 / direct=3 / weightb=1 / open_gop=0 / weightp=2 / keyint=250 / keyint_min=23 / scenecut=40 / intra_refresh=0 / rc=2pass / mbtree=0 / bitrate=5850 / ratetol=1.0 / qcomp=0.70 / qpmin=0:0:0 / qpmax=69:69:69 / qpstep=4 / cplxblur=20.0 / qblur=0.5 / ip_ratio=1.30 / pb_ratio=1.20 / aq=1:0.80 / aq-sensitivity=10.00 / aq-factor=1.00:1.00:1.00 / aq2=0 / aq3=0
Language : English
Default : Yes
Forced : No
Matrix coefficients : BT.709

Audio #1
ID : 2
Format : DTS
Format/Info : Digital Theater Systems
Mode : 16
Format settings, Endianness : Big
Codec ID : A_DTS
Duration : 1h 53mn
Bit rate mode : Constant
Bit rate : 768 Kbps
Channel(s) : 6 channels
Channel positions : Front: L C R, Side: L R, LFE
Sampling rate : 48.0 KHz
Bit depth : 24 bits
Compression mode : Lossy
Stream size : 623 MiB (9%)
Title : DTS 5.1 @ 768 kbps - DUB, Blu-ray EUR
Language : Russian
Default : Yes
Forced : No

Audio #2
ID : 3
Format : AC-3
Format/Info : Audio Coding 3
Mode extension : CM (complete main)
Format settings, Endianness : Big
Codec ID : A_AC3
Duration : 1h 53mn
Bit rate mode : Constant
Bit rate : 192 Kbps
Channel(s) : 2 channels
Channel positions : Front: L R
Sampling rate : 48.0 KHz
Bit depth : 16 bits
Compression mode : Lossy
Stream size : 156 MiB (2%)
Title : AC3 2.0 @ 192 kbps - DUB, iTunes
Language : Ukrainian
Default : No
Forced : No

Audio #3
ID : 4
Format : DTS
Format/Info : Digital Theater Systems
Format profile : ES
Mode : 16
Format settings, Endianness : Big
Codec ID : A_DTS
Duration : 1h 53mn
Bit rate mode : Constant
Bit rate : 1 509 Kbps
Channel(s) : 6 channels
Channel positions : Front: L C R, Side: L R, LFE
Sampling rate : 48.0 KHz
Bit depth : 24 bits
Compression mode : Lossy
Delay relative to video : 11ms
Stream size : 1.20 GiB (18%)
Title : DTS 5.1 @ 1536 kbps
Language : English
Default : No
Forced : No

Audio #4
ID : 5
Format : AC-3
Format/Info : Audio Coding 3
Mode extension : CM (complete main)
Format settings, Endianness : Big
Codec ID : A_AC3
Duration : 1h 53mn
Bit rate mode : Constant
Bit rate : 224 Kbps
Channel(s) : 2 channels
Channel positions : Front: L R
Sampling rate : 48.0 KHz
Bit depth : 16 bits
Compression mode : Lossy
Stream size : 182 MiB (3%)
Title : AC3 2.0 @ 224 kbps - Commentary by Wes Ball and T.S. Nowlin
Language : English
Default : No
Forced : No

Text #1
ID : 6
Format : UTF-8
Codec ID : S_TEXT/UTF8
Codec ID/Info : UTF-8 Plain Text
Language : Russian
Default : No
Forced : No

Text #2
ID : 7
Format : UTF-8
Codec ID : S_TEXT/UTF8
Codec ID/Info : UTF-8 Plain Text
Language : Ukrainian
Default : No
Forced : No

Text #3
ID : 8
Format : UTF-8
Codec ID : S_TEXT/UTF8
Codec ID/Info : UTF-8 Plain Text
Language : English
Default : No
Forced : No

Text #4
ID : 9
Format : UTF-8
Codec ID : S_TEXT/UTF8
Codec ID/Info : UTF-8 Plain Text
Title : SDH
Language : English
Default : No
Forced : No

Text #5
ID : 10
Format : UTF-8
Codec ID : S_TEXT/UTF8
Codec ID/Info : UTF-8 Plain Text
Title : SDH-COLORED
Language : English
Default : No
Forced : No

Text #6
ID : 11
Format : UTF-8
Codec ID : S_TEXT/UTF8
Codec ID/Info : UTF-8 Plain Text
Title : Commentary
Language : English
Default : No
Forced : No

Menu
00:00:00.000 : en:Chapter 1
00:03:12.650 : en:Chapter 2
00:07:15.977 : en:Chapter 3
00:10:25.249 : en:Chapter 4
00:14:15.563 : en:Chapter 5
00:17:21.248 : en:Chapter 6
00:19:33.338 : en:Chapter 7
00:23:21.024 : en:Chapter 8
00:24:36.391 : en:Chapter 9
00:28:13.108 : en:Chapter 10
00:31:26.009 : en:Chapter 11
00:34:12.050 : en:Chapter 12
00:37:11.812 : en:Chapter 13
00:41:00.875 : en:Chapter 14
00:42:16.617 : en:Chapter 15
00:45:47.453 : en:Chapter 16
00:48:31.825 : en:Chapter 17
00:52:57.799 : en:Chapter 18
00:55:21.776 : en:Chapter 19
00:57:58.808 : en:Chapter 20
00:59:31.150 : en:Chapter 21
01:01:35.274 : en:Chapter 22
01:05:13.910 : en:Chapter 23
01:08:42.409 : en:Chapter 24
01:12:14.246 : en:Chapter 25
01:14:22.833 : en:Chapter 26
01:20:27.823 : en:Chapter 27
01:22:25.649 : en:Chapter 28
01:25:38.174 : en:Chapter 29
01:29:41.584 : en:Chapter 30
01:33:49.457 : en:Chapter 31
01:36:43.255 : en:Chapter 32
01:39:33.425 : en:Chapter 33
01:43:05.596 : en:Chapter 34
01:45:08.218 : en:Chapter 35
01:46:12.657 : en:Chapter 36

Срочно! Нужна помощь! Жмите pb.wtf



Скачать Бегущий в лабиринте через торрент http://i66.fastpic.ru/big/2014/1206/b4/82f85bb4e9e3fdf2ae3e355a3425e0b4.jpg Скачать фильм Бегущий в лабиринте через торрент бесплантно в хорошем качестве Описание: Главный герой — подросток Томас, который просыпается в лифте, но ничего не помнит, кроме своего имени. Он оказывается среди 60 ... 10 10 12
Info! Золотая раздача, скачанное не засчитывается.
Торрент: Зарегистрирован [2014-12-18 04:53] · скачан: 788 раз
Статус: √ проверено
Размер: 6.5 GB
Как cкачать? Как скачать Бегущий в лабиринте через торрент | qTorrent

% Раздел Тема Автор DL S | L
Фильмы 2014 [DVDrip, WEB-DLRip, HDrip] [ 2.17 GB ] Бегущий в лабиринте / The Maze Runner [2014 BDRip-AVC] [] + [SUB] killermax2013 Скачать
1 | 0
Фильмы [HD 720p, 1080p] (Хороший звук DUB, MVO) [ 4.84 GB ] Бегущий в лабиринте: Лекарство от смерти / Maze Runner: The Death Cure [2018 BDRip 1080p HEVC ()] Мичман37 Скачать
1 | 0
Фильмы [HD 720p, 1080p] (Хороший звук DUB, MVO) [ 5.27 GB ] Бегущий в лабиринте: Испытание огнём / Maze Runner: The Scorch Trials [2015 BDRip 1080p HEVC ()] Мичман37 Скачать
1 | 0
Фильмы [HD 720p, 1080p] (Хороший звук DUB, MVO) [ 5.3 GB ] Бегущий в лабиринте / The Maze Runner [2014 BDRip 1080p HEVC ()] Мичман37 Скачать
1 | 0
Фильмы 2018 [DVDrip, WEB-DLRip, HDrip] (DUB, MVO) [ 2.18 GB ] Бегущий в лабиринте: Лекарство от смерти / Maze Runner: The Death Cure [2018 BDRip] - [] Twi7ter Скачать
1 | 0
Фильмы (Blu-ray, BD-Remux, HDDVD) [ 44.23 GB ] Бегущий в лабиринте: Лекарство от смерти / Maze Runner: The Death Cure [2018 Blu-ray EUR 1080p] DUB [] bober100 Скачать
1 | 0
Ultra HD (UHD: 2K, 4K, 8K) — видео сверхвысокой чёткости [ 28.56 GB ] Бегущий в лабиринте: Лекарство от смерти / Maze Runner: The Death Cure [2018 UHD BDRip 2160p] DUB + MVO [HDRezka] sheker187 Скачать
1 | 0

28-11-2019 20:33  

Отключить всю рекламу на сайте

    Дорогой пользователь! Огромная просьба, поблагодарите релизера, оцените раздачу и оставьте свои комментарий, если Вы скачали Бегущий в лабиринте через торрент бесплатно! Внесите свою лепту в развитие PiratBit!
    Комментировать посты могут только пользователи прошедшие не сложную регистрацию
    Показать сообщения:    

    Бегущий в лабиринте через торрент
    Скачать бесплатно Бегущий в лабиринте
    Бегущий в лабиринте скачать торрент
    Бегущий в лабиринте смотреть онлайн
    Cкачать фильм Бегущий в лабиринте бесплатно
    Бегущий в лабиринте скачать торрент в хорошем качестве
    Бегущий в лабиринте смотреть онлайн бесплатно в хорошем качестве


    Вы не можете начинать темы
    Вы не можете отвечать на сообщения
    Вы не можете редактировать свои сообщения
    Вы не можете удалять свои сообщения
    Вы не можете голосовать в опросах
    Вы не можете прикреплять файлы к сообщениям
    Вы можете скачивать файлы