Всегда рабочее зеркало без VPN и Proxy просто перед .vidak.icu напиши любое слово или цифру, Пример http://j619.vidak.icu

iTunes

2 сезон

1 сезон

1

1 сезон

iTunes

2 сезон

13

1 сезон

Deluxe

pack

Рекомендуем

Пиратка

30

ВАЖНО

RePack

MK11

RePack

jed

RePack

fifa19

RePack

RDR2

RePack

NEED FOR SPEED™ PAYBACK

Кинопоиск HD

6 сезон

 Острые козырьки 6 сезон

Все сериалы

все сериалы на PB.wtf

RePack

FAR CRY 5

Anonymous, нам критически не хватает 5601 руб. на оплату серверов и переферии за Апрель, помоги нам пожалуйста, вся надежда только на тебя. В благодарность мы отключим тебе всю рекламу на сайте!

×
  
Magnet ссылка

Денежный поезд / Money Train (Джозеф Рубин ) [1995, боевик, триллер, драма, BDRip 720p, DUB, MVO, AVO] pb.wtf

Денежный поезд через торрент pb.wtf

Размер: 5.75 GB | Добавлен: 7 лет 5 мес. назад | Торрент скачан:78 раз
Смотреть онлайн Денежный поезд | Скачать    Ребята, помогите собрать деньги на оплату серверов!!!

18-12-2014 14:03 Денежный поезд Скачать торрент  

Денежный поезд / Money Train
«If you're a criminal, Stay on the Train!»


Год выпуска: 1995
Страна: США
Жанр: боевик, триллер, драма, комедия, криминал
Продолжительность: 01:49:58
Перевод: Дублированный, Профессиональный многоголосый, Авторский (одноголосый)
Субтитры: русские (Russian), английские (English)
Режиссер: Джозеф Рубин
В ролях: Уэсли Снайпс , Вуди Харрельсон , Дженнифер Лопез , Роберт Блейк , Крис Купер , Джо Грифази , Скотт Сауэрс , Скипп Саддат , Винсент Лареска , Нельсон Васкес , Винсент Патрик , Аида Туртурро
Описание::
Два сводных брата, белый и чернокожий, с детства мечтавшие лишь об одном - разбогатеть, задумывают дерзкое ограбление. Цель налетчиков - поезд метро, каждую ночь перевозящий миллионы по тоннелям нью - йоркской подземки. Только два обстоятельства останавливают их: они оба полицейские, а поезд находится под личной охраной их босса.
Но соблазн слишком велик, да и вредному боссу, накануне уволившему их со службы, насолить очень уж хочется, и вот - в новогоднюю ночь пара новоявленных грабителей решает осуществить то, о чем они грезили всю жизнь - угнать поезд и стать миллионерами...

Качество: BDRip 720p (исходник Blu-ray)
Контейнер (Расширение): MKV
Видео кодек: AVC
Аудио кодек: AC3
Видео: 1280x534 (2.40:1), 4287 Кбит/сек, 23,976 кадр/сек, 0,262 Бит/[Пиксели*Кадры]
Аудио №1: русский / AC3 / 5.1 / 48 kHz / 448 kbps / 16 bit |дублированный|
Аудио №2: русский / AC3 / 2.0 / 48 kHz / 192 kbps / 16 bit |многоголосый закадровый|
Аудио №3: русский / AC3 / 5.1 / 48 kHz / 640 kbps / 16 bit |авторский одноголосый, Гаврилов|
Аудио №4: русский / AC3 / 5.1 / 48 kHz / 640 kbps / 16 bit |авторский одноголосый, Живов|
Аудио №5: русский / AC3 / 5.1 / 48 kHz / 640 kbps / 16 bit |авторский одноголосый, Санаев|
Аудио №6: английский / AC3 / 5.1 / 48 kHz / 640 kbps / 16 bit
Навигация по главам(Чаптеры): естьАвтор рипа: Сообщество:

Код:

Format                                   : Matroska
Format version                           : Version 2
File size                                : 5.75 GiB
Duration                                 : 1h 49mn
Overall bit rate                         : 7 487 Kbps
Movie name                               : Denezhnyj poezd.(1995).BDRip.720p.[denis100]
Encoded date                             : UTC 2014-12-18 13:43:43
Writing application                      : mkvmerge v5.8.0 ('No Sleep / Pillow') built on Sep  2 2012 15:37:04
Writing library                          : libebml v1.2.3 + libmatroska v1.3.0

Video
ID                                       : 1
Format                                   : AVC
Format/Info                              : Advanced Video Codec
Format profile                           : High@L4.1
Format settings, CABAC                   : Yes
Format settings, ReFrames                : 11 frames
Codec ID                                 : V_MPEG4/ISO/AVC
Duration                                 : 1h 49mn
Bit rate                                 : 4 287 Kbps
Width                                    : 1 280 pixels
Height                                   : 534 pixels
Display aspect ratio                     : 2.40:1
Frame rate                               : 23.976 fps
Color space                              : YUV
Chroma subsampling                       : 4:2:0
Bit depth                                : 8 bits
Scan type                                : Progressive
Bits/(Pixel*Frame)                       : 0.262
Stream size                              : 3.18 GiB (55%)
Title                                    : Denezhnyj poezd.(1995).BDRip.720p.[denis100]
Writing library                          : x264 core 142 r2491 24e4fed
Encoding settings                        : cabac=1 / ref=11 / deblock=1:-3:-3 / analyse=0x3:0x133 / me=umh / subme=11 / psy=1 / psy_rd=1.00:0.10 / mixed_ref=1 / me_range=48 / chroma_me=1 / trellis=2 / 8x8dct=1 / cqm=0 / deadzone=21,11 / fast_pskip=0 / chroma_qp_offset=-3 / threads=6 / lookahead_threads=1 / sliced_threads=0 / nr=0 / decimate=1 / interlaced=0 / bluray_compat=0 / constrained_intra=0 / bframes=9 / b_pyramid=2 / b_adapt=2 / b_bias=0 / direct=3 / weightb=1 / open_gop=0 / weightp=2 / keyint=240 / keyint_min=23 / scenecut=40 / intra_refresh=0 / rc=2pass / mbtree=0 / bitrate=4287 / ratetol=1.0 / qcomp=0.60 / qpmin=0 / qpmax=69 / qpstep=4 / cplxblur=20.0 / qblur=0.5 / ip_ratio=1.40 / pb_ratio=1.30 / aq=1:1.00
Language                                 : English
Default                                  : Yes
Forced                                   : No

Audio #1
ID                                       : 2
Format                                   : AC-3
Format/Info                              : Audio Coding 3
Mode extension                           : CM (complete main)
Codec ID                                 : A_AC3
Duration                                 : 1h 49mn
Bit rate mode                            : Constant
Bit rate                                 : 448 Kbps
Channel(s)                               : 6 channels
Channel positions                        : Front: L C R, Side: L R, LFE
Sampling rate                            : 48.0 KHz
Bit depth                                : 16 bits
Compression mode                         : Lossy
Stream size                              : 352 MiB (6%)
Title                                    : Дублированный
Language                                 : Russian
Default                                  : Yes
Forced                                   : No

Audio #2
ID                                       : 3
Format                                   : AC-3
Format/Info                              : Audio Coding 3
Mode extension                           : CM (complete main)
Codec ID                                 : A_AC3
Duration                                 : 1h 49mn
Bit rate mode                            : Constant
Bit rate                                 : 192 Kbps
Channel(s)                               : 2 channels
Channel positions                        : Front: L R
Sampling rate                            : 48.0 KHz
Bit depth                                : 16 bits
Compression mode                         : Lossy
Stream size                              : 151 MiB (3%)
Title                                    : Многоголосый закадровый
Language                                 : Russian
Default                                  : No
Forced                                   : No

Audio #3
ID                                       : 4
Format                                   : AC-3
Format/Info                              : Audio Coding 3
Mode extension                           : CM (complete main)
Codec ID                                 : A_AC3
Duration                                 : 1h 49mn
Bit rate mode                            : Constant
Bit rate                                 : 640 Kbps
Channel(s)                               : 6 channels
Channel positions                        : Front: L C R, Side: L R, LFE
Sampling rate                            : 48.0 KHz
Bit depth                                : 16 bits
Compression mode                         : Lossy
Stream size                              : 503 MiB (9%)
Title                                    : Авторский одноголосый, Гаврилов
Language                                 : Russian
Default                                  : No
Forced                                   : No

Audio #4
ID                                       : 5
Format                                   : AC-3
Format/Info                              : Audio Coding 3
Mode extension                           : CM (complete main)
Codec ID                                 : A_AC3
Duration                                 : 1h 49mn
Bit rate mode                            : Constant
Bit rate                                 : 640 Kbps
Channel(s)                               : 6 channels
Channel positions                        : Front: L C R, Side: L R, LFE
Sampling rate                            : 48.0 KHz
Bit depth                                : 16 bits
Compression mode                         : Lossy
Stream size                              : 503 MiB (9%)
Title                                    : Авторский одноголосый, Живов
Language                                 : Russian
Default                                  : No
Forced                                   : No

Audio #5
ID                                       : 6
Format                                   : AC-3
Format/Info                              : Audio Coding 3
Mode extension                           : CM (complete main)
Codec ID                                 : A_AC3
Duration                                 : 1h 49mn
Bit rate mode                            : Constant
Bit rate                                 : 640 Kbps
Channel(s)                               : 6 channels
Channel positions                        : Front: L C R, Side: L R, LFE
Sampling rate                            : 48.0 KHz
Bit depth                                : 16 bits
Compression mode                         : Lossy
Stream size                              : 503 MiB (9%)
Title                                    : Авторский одноголосый, Санаев
Language                                 : Russian
Default                                  : No
Forced                                   : No

Audio #6
ID                                       : 7
Format                                   : AC-3
Format/Info                              : Audio Coding 3
Mode extension                           : CM (complete main)
Codec ID                                 : A_AC3
Duration                                 : 1h 49mn
Bit rate mode                            : Constant
Bit rate                                 : 640 Kbps
Channel(s)                               : 6 channels
Channel positions                        : Front: L C R, Side: L R, LFE
Sampling rate                            : 48.0 KHz
Bit depth                                : 16 bits
Compression mode                         : Lossy
Stream size                              : 503 MiB (9%)
Title                                    : English
Language                                 : English
Default                                  : No
Forced                                   : No

Text #1
ID                                       : 8
Format                                   : UTF-8
Codec ID                                 : S_TEXT/UTF8
Codec ID/Info                            : UTF-8 Plain Text
Title                                    : Russian
Language                                 : Russian
Default                                  : No
Forced                                   : No

Text #2
ID                                       : 9
Format                                   : UTF-8
Codec ID                                 : S_TEXT/UTF8
Codec ID/Info                            : UTF-8 Plain Text
Title                                    : English
Language                                 : English
Default                                  : No
Forced                                   : No

Menu
00:00:00.000                             : en:00:00:00.000
00:05:49.139                             : en:00:05:49.139
00:12:44.346                             : en:00:12:44.346
00:17:12.280                             : en:00:17:12.280
00:25:01.665                             : en:00:25:01.665
00:31:20.169                             : en:00:31:20.169
00:40:27.550                             : en:00:40:27.550
00:46:52.391                             : en:00:46:52.391
00:50:31.862                             : en:00:50:31.862
00:56:01.690                             : en:00:56:01.690
01:02:50.807                             : en:01:02:50.807
01:11:31.703                             : en:01:11:31.703
01:14:40.934                             : en:01:14:40.934
01:22:01.917                             : en:01:22:01.917
01:27:19.317                             : en:01:27:19.317
01:39:45.645                             : en:01:39:45.645

x264 [info]: frame I:1033 Avg QP:16.01 size: 87853
x264 [info]: frame P:41920 Avg QP:18.60 size: 37618
x264 [info]: frame B:115255 Avg QP:20.12 size: 16182
pb.wtf



Скачать Денежный поезд через торрент http://i65.fastpic.ru/big/2014/1218/cb/9c60c721ad22120514e8c365e96593cb.png Скачать, смотреть онлайн Денежный поезд бесплантно в хорошем качестве Описание::Два сводных брата, белый и чернокожий, с детства мечтавшие лишь об одном - разбогатеть, задумывают дерзкое ограбление. Цель ... 10 10 4
Торрент: Зарегистрирован [2014-12-18 14:03] · скачан: 78 раз
Статус: √ проверено
Размер: 5.75 GB
Как cкачать? Как скачать Денежный поезд через торрент | UTorrent

% Раздел Тема Автор DL S | L
Фильмы с авторской озвучкой [ 1.47 GB ] Денежный поезд / Money Train [1995 HDRip Авторский ] ASPID100 Скачать
1 | 0
Фильмы с авторской озвучкой [ 1.77 GB ] Денежный поезд / Money Train [1995 HDRip] 2x[AVO] killermax2013 Скачать
1 | 0
Фильмы [HD 720p, 1080p] (Хороший звук DUB, MVO) [ 4.37 GB ] Денежный поезд / Money Train [1995 BDRip720p] Delia Скачать
1 | 0
Фильмы до 2000 г. [ 1.46 GB ] Денежный поезд / Money Train [1995 BDRip] rulya74 Скачать
1 | 0
Фильмы до 2000 г. [ 1.37 GB ] Денежный поезд / Money Train [1995 ... HDRip] кэп Скачать
1 | 0

28-11-2019 20:33  

Отключить всю рекламу на сайте

    Дорогой пользователь! Огромная просьба, поблагодарите релизера, оцените раздачу и оставьте свои комментарий, если Вы скачали Денежный поезд через торрент бесплатно!
    Комментировать посты могут только пользователи прошедшие не сложную регистрацию
    Показать сообщения:    

    Денежный поезд через торрент
    Скачать бесплатно Денежный поезд
    Денежный поезд скачать торрент
    Денежный поезд смотреть онлайн
    Cкачать фильм Денежный поезд бесплатно
    Денежный поезд скачать торрент в хорошем качестве
    Денежный поезд смотреть онлайн бесплатно в хорошем качестве


    Вы не можете начинать темы
    Вы не можете отвечать на сообщения
    Вы не можете редактировать свои сообщения
    Вы не можете удалять свои сообщения
    Вы не можете голосовать в опросах
    Вы не можете прикреплять файлы к сообщениям
    Вы можете скачивать файлы