Ссылка на приватное зеркало нашего сайта всего за 1$. Внимание количество ограничено!!!

2 сезон

iTunes

1 сезон

1

iTunes

iTunes

iTunes

1 сезон

RePack

30

ИГРА 18+

pack

ВАЖНО

!!Акция!!

Alien_RageХит недели

RePack

MK11
pack

Забери бонус

RePack

jed

!!Акция!!

Alien_Rage

RePack

fifa19

RePack

Assassins Creed: Odyssey

RePack

NEED FOR SPEED™ PAYBACK

4 сезон

9 сезон

Бесстыжие 9 сезон

Все сериалы

все сериалы на PB.wtf

RePack

FAR CRY 5
  

Уличные танцы / Street Dance (Макс Джива, Дания Пасквини) [2010, мелодрама, музыка, BDRip 1080p] DUB pb.wtf

Уличные танцы через торрент pb.wtf

Раздают: 1 [ 0 KB/s ]
Размер: 7.75 GB | Добавлен: 5 лет 10 мес. назад | Торрент скачан:51 раз
Скачать  

18-12-2014 14:11 Уличные танцы Скачать торрент  

Информация о фильме

Русское название: Уличные танцы
Оригинальное название: Street Dance
Год выхода: 2010
Жанр: мелодрама, музыка
Режиссер: Макс Джива, Дания Пасквини
Выпущено: Великобритания
Продолжительность: 01:38:15
Перевод: Дублированный
В ролях: Шарлотта Рэмплинг , Никола Берли , Рэйчел МакДауэлл , Элинор Брон , Ричард Уинзор , Патрик Балади , Фрэнк Харпер , Шианад Грегори , Джереми Шеффилд, Джордж Сэмпсон , Аквели Роач , Саша Чанг


Сюжет фильма

Для победы на ежегодном Street Dance-чемпионате группа молодых танцоров начинает репетировать вместе с танцорами из Королевской Школы Балета. На стыке рок-н-ролла, уличных танцев и классики рождается умопомрачительный микс танцевальных стилей, страстей и эмоций.


Файл

Формат: AVC (библиотека кодирования x.264)
Контейнер (Расширение): MKV
Видео кодек: AVC
Аудио кодек:AC3
Качество: BDRip 1080p (исходник Blu-ray Disc)
Видео: 1920x1078, 10412 Кбит/сек, 24,000 кадр/сек, AVC, x264, High@L4.1, 16:9, 0.210 Бит/[Пиксели*Кадры]
Аудио 1: AC-3, 448 Кбит/сек, 6 канала(ов), 48,0 КГц - Дублированный / Русский
Аудио 2: AC-3, 448 Кбит/сек, 6 канала(ов), 48,0 КГц - Оригинал / Английский
Субтитры: Русские | Полные, Английские | Полные
Форсированные субтитры: Нет
Чаптеры (Главы): Есть






Сэмпл




Автор Рипа: Сообщество:


скриншот   скриншот   скриншот  

Код:

Format                                   : Matroska
Format version                           : Version 2
File size                                : 7.75 GiB
Duration                                 : 1h 38mn
Overall bit rate                         : 11.3 Mbps
Movie name                               : Уличные танцы.(2010).BDRip.1080p.[envy]
Encoded date                             : UTC 2014-12-17 18:18:35
Writing application                      : mkvmerge v5.8.0 ('No Sleep / Pillow') built on Sep  2 2012 15:37:04
Writing library                          : libebml v1.2.3 + libmatroska v1.3.0

Video
ID                                       : 1
Format                                   : AVC
Format/Info                              : Advanced Video Codec
Format profile                           : High@L4.1
Format settings, CABAC                   : Yes
Format settings, ReFrames                : 4 frames
Codec ID                                 : V_MPEG4/ISO/AVC
Duration                                 : 1h 38mn
Bit rate                                 : 10.4 Mbps
Width                                    : 1 920 pixels
Height                                   : 1 078 pixels
Display aspect ratio                     : 16:9
Frame rate mode                          : Constant
Frame rate                               : 24.000 fps
Color space                              : YUV
Chroma subsampling                       : 4:2:0
Bit depth                                : 8 bits
Scan type                                : Progressive
Bits/(Pixel*Frame)                       : 0.210
Stream size                              : 6.98 GiB (90%)
Title                                    : Уличные танцы.(2010).BDRip.1080p.[envy]
Writing library                          : x264 core 142 r2491 24e4fed
Encoding settings                        : cabac=1 / ref=4 / deblock=1:-3:-2 / analyse=0x3:0x113 / me=umh / subme=11 / psy=1 / psy_rd=1.00:0.00 / mixed_ref=1 / me_range=48 / chroma_me=1 / trellis=2 / 8x8dct=1 / cqm=0 / deadzone=21,11 / fast_pskip=0 / chroma_qp_offset=-2 / threads=12 / lookahead_threads=2 / sliced_threads=0 / nr=0 / decimate=1 / interlaced=0 / bluray_compat=0 / constrained_intra=0 / bframes=8 / b_pyramid=2 / b_adapt=2 / b_bias=0 / direct=3 / weightb=1 / open_gop=0 / weightp=2 / keyint=240 / keyint_min=24 / scenecut=40 / intra_refresh=0 / rc=2pass / mbtree=0 / bitrate=10412 / ratetol=2.0 / qcomp=0.60 / qpmin=0 / qpmax=69 / qpstep=4 / cplxblur=20.0 / qblur=0.5 / ip_ratio=1.40 / pb_ratio=1.30 / aq=2:1.00
Language                                 : English
Default                                  : Yes
Forced                                   : No

Audio #1
ID                                       : 2
Format                                   : AC-3
Format/Info                              : Audio Coding 3
Mode extension                           : CM (complete main)
Format settings, Endianness              : Big
Codec ID                                 : A_AC3
Duration                                 : 1h 38mn
Bit rate mode                            : Constant
Bit rate                                 : 448 Kbps
Channel(s)                               : 6 channels
Channel positions                        : Front: L C R, Side: L R, LFE
Sampling rate                            : 48.0 KHz
Bit depth                                : 16 bits
Compression mode                         : Lossy
Stream size                              : 315 MiB (4%)
Title                                    : Dub
Language                                 : Russian
Default                                  : Yes
Forced                                   : No

Audio #2
ID                                       : 3
Format                                   : AC-3
Format/Info                              : Audio Coding 3
Mode extension                           : CM (complete main)
Format settings, Endianness              : Big
Codec ID                                 : A_AC3
Duration                                 : 1h 38mn
Bit rate mode                            : Constant
Bit rate                                 : 448 Kbps
Channel(s)                               : 6 channels
Channel positions                        : Front: L C R, Side: L R, LFE
Sampling rate                            : 48.0 KHz
Bit depth                                : 16 bits
Compression mode                         : Lossy
Stream size                              : 315 MiB (4%)
Title                                    : Eng
Language                                 : English
Default                                  : No
Forced                                   : No

Text #1
ID                                       : 4
Format                                   : UTF-8
Codec ID                                 : S_TEXT/UTF8
Codec ID/Info                            : UTF-8 Plain Text
Title                                    : full
Language                                 : Russian
Default                                  : No
Forced                                   : No

Text #2
ID                                       : 5
Format                                   : UTF-8
Codec ID                                 : S_TEXT/UTF8
Codec ID/Info                            : UTF-8 Plain Text
Title                                    : full
Language                                 : English
Default                                  : No
Forced                                   : No

Menu
00:00:00.000                             : :Chapter 01
00:09:34.958                             : :Chapter 02
00:15:36.541                             : :Chapter 03
00:21:15.333                             : :Chapter 04
00:31:08.041                             : :Chapter 05
00:38:16.916                             : :Chapter 06
00:46:41.708                             : :Chapter 07
00:54:30.541                             : :Chapter 08
01:02:20.500                             : :Chapter 09
01:12:55.333                             : :Chapter 10
01:20:55.916                             : :Chapter 11
01:28:58.750                             : :Chapter 12



pb.wtf



Скачать Уличные танцы через торрент http://3.firepic.org/3/images/2014-12/18/uin8qu51yu86.png Скачать фильм Уличные танцы через торрент бесплантно в хорошем качестве В ролях: Шарлотта Рэмплинг , Никола Берли , Рэйчел МакДауэлл , Элинор Брон , Ричард Уинзор , Патрик Балади , Фрэнк Харпер , Шианад Грегори ... 10 10 1
Торрент: Зарегистрирован [2014-12-18 14:11] · скачан: 51 раз
Статус: √ проверено
Размер: 7.75 GB
Как cкачать? Как скачать Уличные танцы через торрент | qTorrent

% Раздел Тема Автор DL S | L
Фильмы [HD 720p, 1080p] (Хороший звук DUB, MVO) [ 7.74 GB ] Уличные танцы 2 / Street Dance 2 [2012 музыка BDRip 1080p] DUB еnvy Скачать
1 | 0
Фильмы [HD 720p, 1080p] (Хороший звук DUB, MVO) [ 6.78 GB ] Уличные танцы 2 / StreetDance 2 [2012 музыка BDRip 1080p DUB лицензия] 19alexei87 Скачать
1 | 0
Фильмы [HD 720p, 1080p] (Хороший звук DUB, MVO) [ 4.59 GB ] Уличные танцы 2 / StreetDance 2 [2012 музыка BDRip DUB ] Lyfe Скачать
1 | 0
Фильмы 2012 [ 1.45 GB ] Уличные танцы 2 / StreetDance 2 [2012 музыка HDRip-AVC] DUB |лицензия| NarutoSasuke Скачать
1 | 0
Фильмы 2012 [ 702 MB ] Уличные танцы 2 / StreetDance 2 [2012 музыка HDRip DUB ] MIXX_ON Скачать
1 | 0
Фильмы 2010 [ 1.36 GB ] Уличные танцы / Street Dance [2010 музыка HDRip]dub L_E_X Скачать
1 | 0

28-11-2019 20:33  

Отключить всю рекламу на сайте

    Дорогой пользователь! Огромная просьба, поблагодарите релизера, оцените раздачу и оставьте свои комментарий, если Вы скачали Уличные танцы через торрент бесплатно! Внесите свою лепту в развитие PiratBit!
    Комментировать посты могут только пользователи прошедшие не сложную регистрацию
    Показать сообщения:    

    Уличные танцы через торрент
    Скачать бесплатно Уличные танцы
    Уличные танцы скачать торрент
    Уличные танцы смотреть онлайн
    Cкачать фильм Уличные танцы бесплатно
    Уличные танцы скачать торрент в хорошем качестве
    Уличные танцы смотреть онлайн бесплатно в хорошем качестве


    Вы не можете начинать темы
    Вы не можете отвечать на сообщения
    Вы не можете редактировать свои сообщения
    Вы не можете удалять свои сообщения
    Вы не можете голосовать в опросах
    Вы не можете прикреплять файлы к сообщениям
    Вы можете скачивать файлы