Ссылка на приватное зеркало нашего сайта всего за 1$. Внимание количество ограничено!!!

2 сезон

iTunes

1 сезон

1

2 сезон

2 сезон

iTunes

1 сезон

RePack

30

Ultimate

ВАЖНО

ИГРА 18+

pack

RePack

MK11
pack

Забери бонус

RePack

jed

!!Акция!!

Alien_Rage

RePack

fifa19

RePack

Assassins Creed: Odyssey

RePack

NEED FOR SPEED™ PAYBACK

4 сезон

9 сезон

Бесстыжие 9 сезон

Все сериалы

все сериалы на PB.wtf

RePack

FAR CRY 5
  

Великий уравнитель / The Equalizer (Антуан Фукуа) [2014 г., боевик, триллер, криминал, BDRip 1080p, Дубляж, Лицензия] pb.wtf

Великий уравнитель через торрент pb.wtf

Размер: 12.44 GB | Добавлен: 5 лет 11 мес. назад | Торрент скачан:2170 раз
Скачать  

18-12-2014 14:41 Великий уравнитель Скачать торрент  

Великий уравнитель / The Equalizer

Страна: США
Год выпуска: 2014
Жанр: боевик, триллер, криминал
Продолжительность: 02:12:02
Перевод: Профессиональный дублированный /Лицензия Blu-Ray CEE/
Тип релиза: Лицензия
Субтитры: Русские (форс. + полные), Английские (+ форс., SDH) | отключаемые *.srt|

Режиссер: Антуан Фукуа
Продюссер: Тодд Блэк, Джейсон Блюменталь, Тони Элдридж
Сценарий: Ричард Уэнк, Майкл Слоун, Ричард Линдхейм

Бюджет: $ 55 000 000
Премьера в мире: 7 сентября 2014






Дензел Вашингтон,Мартон Чокаш,Хлоя Грейс Морец,Дэвид Харбор,Хейли Беннетт,Билл Пуллман,Мелисса Лео,Дэвид Мюнье,Джонни Скуртис,Алекс Видов.



Роберт МакКолл — бывший спецназовец. После увольнения со службы он собирается начать нормальную мирную жизнь, дав себе обещание больше никогда не брать в руки оружия. Но в один прекрасный момент он встречает молодую девушку, зарабатывающую на жизнь проституцией, которую на его глазах избивают бандиты и увозят в неизвестном направлении. Тогда он решает отыскать ее, после чего вступает в неравную схватку с русской мафией и продажными агентами ЦРУ. Ради справедливости он готов нарушить собственное обещание и применить оружие против людей, которые просто не заслуживают жить в этом мире…



Качество: BDRip 1080p /исходник: 1080p Blu-Ray AVC DTS-HD MA 7.1-CHDBits/
Формат: MKV
Видео кодек: AVC
Аудио кодек: AC3
Видео: 1920x804 (2.35:1), ~11568 kbps avg, 23,976 fps MPEG4/ISO/AVC
Русский#1: AC3 Dolby Digital, 48 KHz, ~640 kbps, 3/2 (L,C,R,l,r) + LFE ch
Украинский#2: AC3 Dolby Digital, 48 KHz, ~640 kbps, 3/2 (L,C,R,l,r) + LFE ch
Английский#3: AC3 Dolby Digital, 48 KHz, ~640 kbps, 3/2 (L,C,R,l,r) + LFE ch

E:\VIDEO\Velikii.Uravnitel.2014..BluRay.1080p..mkv
General
Complete name : E:\VIDEO\Velikii.Uravnitel.2014..BluRay.1080p..mkv
Format : Matroska
File size : 12.4 GiB
Duration : 2h 12mn
Overall bit rate : 13.5 Mbps
Movie name : The Equalizer (2014) - HQ-ViDEO
Encoded date : UTC 2014-12-18 11:45:44
Writing application : mkvmerge v7.4.0 ('Circles') 64bit built on Dec 12 2014 12:19:56
Writing library : libebml v1.3.0 + libmatroska v1.4.1
Video #1
ID : 1
Format : AVC
Format/Info : Advanced Video Codec
Format profile : High@L4.1
Format settings, CABAC : Yes
Format settings, ReFrames : 5 frames
Muxing mode : Container profile=Unknown@4.1
Codec ID : V_MPEG4/ISO/AVC
Duration : 2h 11mn
Bit rate : 11.3 Mbps
Width : 1 920 pixels
Height : 804 pixels
Display aspect ratio : 2.35:1
Frame rate : 23.976 fps
Resolution : 24 bits
Colorimetry : 4:2:0
Scan type : Progressive
Bits/(Pixel*Frame) : 0.305
Stream size : 10.4 GiB (84%)
Title : Vaippp @ 11567.60 Kbps
Writing library : x264 core 142 r2431+42 c69a006 tMod [8-bit@all X86_64]
Encoding settings : cabac=1 / ref=5 / deblock=1:-3:-3 / analyse=0x3:0x133 / me=esa / subme=11 / psy=1 / fade_compensate=0.00 / psy_rd=1.05:0.00 / mixed_ref=1 / me_range=24 / chroma_me=1 / trellis=2 / 8x8dct=1 / cqm=0 / deadzone=21,11 / fast_pskip=0 / chroma_qp_offset=-2 / threads=12 / lookahead_threads=2 / sliced_threads=0 / nr=0 / decimate=1 / interlaced=0 / bluray_compat=0 / constrained_intra=0 / fgo=0 / bframes=9 / b_pyramid=2 / b_adapt=2 / b_bias=0 / direct=3 / weightb=1 / open_gop=0 / weightp=2 / keyint=240 / keyint_min=22 / scenecut=40 / intra_refresh=0 / rc_lookahead=60 / rc=crf / mbtree=0 / crf=15.0000 / qcomp=0.80 / qpmin=0:0:0 / qpmax=69:69:69 / qpstep=4 / vbv_maxrate=50000 / vbv_bufsize=62500 / crf_max=0.0 / nal_hrd=none / filler=0 / ip_ratio=1.40 / pb_ratio=1.30 / aq=4:0.70 / aq-sensitivity=10.00 / aq-factor=1.00:1.00:1.00 / aq2=0 / aq3=0 / zones=929,1565,crf=10/148044,148487,crf=10
colour_primaries : BT.709-5, BT.1361, IEC 61966-2-4, SMPTE RP177
transfer_characteristics : BT.709-5, BT.1361
matrix_coefficients : BT.709-5, BT.1361, IEC 61966-2-4 709, SMPTE RP177
Audio #2
ID : 2
Format : AC-3
Format/Info : Audio Coding 3
Codec ID : A_AC3
Duration : 2h 12mn
Bit rate mode : Constant
Bit rate : 640 Kbps
Channel(s) : 6 channels
Channel positions : Front: L C R, Surround: L R, LFE
Sampling rate : 48.0 KHz
Stream size : 604 MiB (5%)
Title : AC3 DD 5.1 @ 640 kbps DUB - BluRay CEE
Language : Russian
Audio #3
ID : 3
Format : AC-3
Format/Info : Audio Coding 3
Codec ID : A_AC3
Duration : 2h 12mn
Bit rate mode : Constant
Bit rate : 640 Kbps
Channel(s) : 6 channels
Channel positions : Front: L C R, Surround: L R, LFE
Sampling rate : 48.0 KHz
Stream size : 604 MiB (5%)
Title : AC3 DD 5.1 @ 640 kbps DUB - BluRay CEE
Language : Ukrainian
Audio #4
ID : 4
Format : AC-3
Format/Info : Audio Coding 3
Codec ID : A_AC3
Duration : 2h 12mn
Bit rate mode : Constant
Bit rate : 640 Kbps
Channel(s) : 6 channels
Channel positions : Front: L C R, Surround: L R, LFE
Sampling rate : 48.0 KHz
Stream size : 604 MiB (5%)
Title : AC3 DD 5.1 @ 640 Kbps Original - BluRay US
Text #5
ID : 5
Format : UTF-8
Codec ID : S_TEXT/UTF8
Codec ID/Info : UTF-8 Plain Text
Title : Forced
Language : Russian
Text #6
ID : 6
Format : UTF-8
Codec ID : S_TEXT/UTF8
Codec ID/Info : UTF-8 Plain Text
Title : Full
Language : Russian
Text #7
ID : 7
Format : UTF-8
Codec ID : S_TEXT/UTF8
Codec ID/Info : UTF-8 Plain Text
Title : Forced
Text #8
ID : 8
Format : UTF-8
Codec ID : S_TEXT/UTF8
Codec ID/Info : UTF-8 Plain Text
Title : Full
Text #9
ID : 9
Format : UTF-8
Codec ID : S_TEXT/UTF8
Codec ID/Info : UTF-8 Plain Text
Title : SDH


Великий уравнитель скачать торрент



скриншот   скриншот   скриншот   скриншот   скриншот  





pb.wtf



Скачать Великий уравнитель через торрент http://pic.kartinco.top/images/8/borvp.jpg Скачать фильм Великий уравнитель через торрент бесплантно в хорошем качестве Год выпуска: 2014Жанр: боевик, триллер, криминалПродолжительность: 02:12:02Перевод: Профессиональный дублированный /Лицензия Blu-Ray ... 9.5 10 67
Info! Золотая раздача, скачанное не засчитывается.
Торрент: Зарегистрирован [2014-12-18 14:41] · скачан: 2 170 раз
Статус: √ проверено
Размер: 12.44 GB
Как cкачать? Как скачать Великий уравнитель через торрент | qTorrent

% Раздел Тема Автор DL S | L
Фильмы (HD 720p, 1080p) (48-60 fps) [ 3.32 GB ] Великий уравнитель 2 / The Equalizer 2 [2018 BDRip 720p / 60 FPS BD CEE] от R.G. HD-Films slaventi-69 Скачать
4 | 0
Фильмы (DVD фильмы) [ 7.74 GB ] Великий уравнитель 2 / The Equalizer 2 [2018 DVD9 ] + [AVO] killermax2013 Скачать
1 | 0
Фильмы (HD 720p, 1080p) (48-60 fps) [ 14.85 GB ] Великий уравнитель 2 / The Equalizer 2 [2018 BDRip 1080p 60 fps] DUB [] bober100 Скачать
1 | 0
Ultra HD (UHD: 2K, 4K, 8K) — видео сверхвысокой чёткости [ 56.03 GB ] Великий уравнитель 2 / The Equalizer 2 [2018 UHD Blu-Ray EUR 2160p] DUB [] bober100 Скачать
1 | 0
Фильмы [HD 720p, 1080p] (Хороший звук DUB, MVO) [ 7.31 GB ] Великий уравнитель / The Equalizer [2014 BDRip 1080p HEVC ()+4хAVO] Мичман37 Скачать
2 | 0
Фильмы (Blu-ray, BD-Remux, HDDVD) [ 40.83 GB ] Великий уравнитель 2 / The Equalizer 2 [2018 Blu-ray 1080p] DUB [] bober100 Скачать
1 | 0
Ultra HD (UHD: 2K, 4K, 8K) — видео сверхвысокой чёткости [ 26.32 GB ] Великий уравнитель 2 / The Equalizer 2 [2018 UHD BDRip 2160p] [SDR] DUB + AVO [Дмитрий Есарев] sheker187 Скачать
1 | 0

28-11-2019 20:33  

Отключить всю рекламу на сайте

20-12-2014 16:00 Великий уравнитель Скачать торрент  

Большое спасибо!!! pb.wtf



20-12-2014 23:38 Великий уравнитель Скачать торрент  

Дензел Вашингтон как всегда на высоте. yespb.wtf



21-12-2014 00:53 Великий уравнитель Скачать торрент  

начало обнадёживало)))pb.wtf



21-12-2014 21:36 Великий уравнитель Скачать торрент  

Отличнейший фильм.pb.wtf



23-12-2014 12:59 Великий уравнитель Скачать торрент  

Ну да, с кем же еще "сражаться" как не с русской мафией !!?? Больше ведь не с кем !? А тем более из-за проститутки !!! Сам бог велел. Благородный мужчина. Даже слово свое нарушил !! Герой одним словом !!!!pb.wtf



25-12-2014 17:56 Великий уравнитель Скачать торрент  

Фильм суперский, посмотрел с удовольствиемpb.wtf



02-01-2015 18:38 Великий уравнитель Скачать торрент  

хорош фильм. смотреть можно. даже 2 раза.pb.wtf



02-01-2015 18:39 Великий уравнитель Скачать торрент  

terraner писал(а):

за раздачу 10 ну а за фильм ТРИ с минусом. такой ериси я давненько не видел. на столько тягомотная хрень. один пенсионер нагнул, якобы, Русскую мафию. хахахахаха. пошли эти пендосы в сракатан... имхо

Ты русский мафиози и тебя это задело?pb.wtf



05-01-2015 06:25 Великий уравнитель Скачать торрент  

terraner писал(а):

за раздачу 10 ну а за фильм ТРИ с минусом. такой ериси я давненько не видел. на столько тягомотная хрень. один пенсионер нагнул, якобы, Русскую мафию. хахахахаха. пошли эти пендосы в сракатан... имхо

Ну нравятся такие фильмы народу.pb.wtf



05-01-2015 08:57 Великий уравнитель Скачать торрент  

chelomov писал(а):

Большое спасибо!!!

просто огромное!!!pb.wtf



11-01-2015 12:51 Великий уравнитель Скачать торрент  

Очень не плохо!!pb.wtf



12-01-2015 16:45 Великий уравнитель Скачать торрент  

:druncp: :druncp: :druncp: :druncp: :druncp:pb.wtf



    Дорогой пользователь! Огромная просьба, поблагодарите релизера, оцените раздачу и оставьте свои комментарий, если Вы скачали Великий уравнитель через торрент бесплатно! Внесите свою лепту в развитие PiratBit!
    Комментировать посты могут только пользователи прошедшие не сложную регистрацию
    Показать сообщения:    

    Великий уравнитель через торрент
    Скачать бесплатно Великий уравнитель
    Великий уравнитель скачать торрент
    Великий уравнитель смотреть онлайн
    Cкачать фильм Великий уравнитель бесплатно
    Великий уравнитель скачать торрент в хорошем качестве
    Великий уравнитель смотреть онлайн бесплатно в хорошем качестве


    Вы не можете начинать темы
    Вы не можете отвечать на сообщения
    Вы не можете редактировать свои сообщения
    Вы не можете удалять свои сообщения
    Вы не можете голосовать в опросах
    Вы не можете прикреплять файлы к сообщениям
    Вы можете скачивать файлы