2 сезон

iTunes

MVO

1

2 сезон

iTunes

iTunes

1 сезон

RePack

30

Ultimate

ВАЖНО

ИГРА 18+

pack

RePack

MK11
pack

Легкие деньги

RePack

jed

RePack

fifa19

RePack

RDR2

RePack

NEED FOR SPEED™ PAYBACK

4 сезон

9 сезон

Бесстыжие 9 сезон

Все сериалы

все сериалы на PB.wtf

RePack

FAR CRY 5

Anonymous, добрый день, мы не успеваем собрать деньги на оплату серверов за декабрь и январь, помогите нам пожалуйста в это трудное время. В качестве благодарности мы отключим Вам всю рекламу на сайте (укажите свой ник в строку Ваше имя)!

×
  
Magnet ссылка

Теория заговора / Zulu (Жером Салль ) [2013, триллер, драма, криминал, HDRip, Профессиональный многоголосый [Лицензия] pb.wtf

Теория заговора через торрент pb.wtf

Размер: 1.46 GB | Добавлен: 6 лет 1 мес. назад | Торрент скачан:608 раз
Скачать  

19-12-2014 04:49 Теория заговора Скачать торрент  

Теория заговора / Zulu

Год выпуска: 2013
Страна: Франция, ЮАР
Жанр: триллер, драма, криминал
Продолжительность: 01:46:41
Перевод: Профессиональный многоголосый [Лицензия]
Режиссер: Жером Салль
В ролях: Орландо Блум (Brian Epkeen), Форест Уитакер (Ali Sokhela), Таня ван Граан (Tara), Наташа Лоринг (Marjorie), Дженна Сарас (Journalist Beach), Свен Райгрок (David Epkeen), Лизе Слэббер (DPS Secretary), Патрик Листер (Dr. Joost Opperman), Роксанна Прентис (Judith Botha), Конрад Кемп (Dan Fletcher), Дэнни Кеог (Kruger), Грант Суэнби (Police at grave)
Описание:
Южная Африка. Кейптаун. 2012 год. Отдел серийных убийств полиции Кейптауна начинает расследование зверского убийства белой девушки. Казавшееся тривиальным преступление быстро превращается в круговорот перестрелок и смертей, ибо в деле оказываются замешаны сначала торговцы наркотиками, потом банды совершенно отмороженных головорезов, а дальше полицейские выходят на интересы могущественной транснациональной корпорации.
В жестком, динамичном и бескомпромиссном криминальном триллере, где кровь льется рекой, героям трудно выжить и не всем это удается. Но детективы Али Сокил и Брайан Ипкин идут до конца, какую бы цену им не пришлось за это заплатить.
Рейтинг:

Качество: HDRip
Формат: AVI
Видео кодек: XviD
Аудио кодек:AC3
Видео: XviD, 720x304 (2.35:1), 1496 kbps, 24 fps, 0,285 bpp
Аудио: AC3 / 5.1 / 48 kHz / 448 kbps / 16 bit

Код:

General
Complete name                            : D:\Торенты\Te0r19.Zag0v0ra.2013.P.HDRip.avi
Format                                   : AVI
Format/Info                              : Audio Video Interleave
File size                                : 1.46 GiB
Duration                                 : 1h 46mn
Overall bit rate                         : 1 954 Kbps
Writing application                      : VirtualDubMod 1.5.10.2 (build 2540/release)
Writing library                          : VirtualDubMod build 2540/release

Video
ID                                       : 0
Format                                   : MPEG-4 Visual
Format profile                           : Advanced Simple@L5
Format settings, BVOP                    : 2
Format settings, QPel                    : No
Format settings, GMC                     : No warppoints
Format settings, Matrix                  : Custom
Codec ID                                 : XVID
Codec ID/Hint                            : XviD
Duration                                 : 1h 46mn
Bit rate                                 : 1 497 Kbps
Width                                    : 720 pixels
Height                                   : 304 pixels
Display aspect ratio                     : 2.35:1
Frame rate                               : 24.000 fps
Color space                              : YUV
Chroma subsampling                       : 4:2:0
Bit depth                                : 8 bits
Scan type                                : Progressive
Compression mode                         : Lossy
Bits/(Pixel*Frame)                       : 0.285
Stream size                              : 1.12 GiB (77%)
Writing library                          : XviD 1.2.1 (UTC 2008-12-04)

Audio
ID                                       : 1
Format                                   : AC-3
Format/Info                              : Audio Coding 3
Mode extension                           : CM (complete main)
Codec ID                                 : 2000
Duration                                 : 1h 46mn
Bit rate mode                            : Constant
Bit rate                                 : 448 Kbps
Channel(s)                               : 6 channels
Channel positions                        : Front: L C R, Side: L R, LFE
Sampling rate                            : 48.0 KHz
Bit depth                                : 16 bits
Compression mode                         : Lossy
Stream size                              : 342 MiB (23%)
Alignment                                : Split accross interleaves
Interleave, duration                     : 42 ms (1.00 video frame)
Interleave, preload duration             : 500 ms

pb.wtf



Скачать Теория заговора через торрент http://i64.fastpic.ru/big/2014/1219/1f/97b057bc86975a7c915434a8be178d1f.jpg Скачать фильм Теория заговора через торрент бесплантно в хорошем качестве Описание: Южная Африка. Кейптаун. 2012 год. Отдел серийных убийств полиции Кейптауна начинает расследование зверского убийства белой ... 9.8 10 18
Торрент: Зарегистрирован [2014-12-19 04:49] · скачан: 608 раз
Статус: √ проверено
Размер: 1.46 GB
Как cкачать? Как скачать Теория заговора через торрент | UTorrent

% Раздел Тема Автор DL S | L
Фильмы (DVD фильмы) [ 3.98 GB ] Теория заговора / Zulu [2014 DVD5] R5 voovaz Скачать
1 | 0
Фильмы [HD 720p, 1080p] (Хороший звук DUB, MVO) [ 6.12 GB ] Теория заговора / Zulu [2013 ЮАР BDRip 1080pMVO] [] Ворон Скачать
1 | 0
# Фильмы 2013 [DVDrip, WEB-DLRip, HDrip] [ 2.73 GB ] Теория заговора / Zulu [2013 BDRip-AVC] MVO+DVO+AVO + Subs Assasinca Скачать
1 | 0

28-11-2019 20:33  

Отключить всю рекламу на сайте

    Дорогой пользователь! Огромная просьба, поблагодарите релизера, оцените раздачу и оставьте свои комментарий, если Вы скачали Теория заговора через торрент бесплатно! Внесите свою лепту в развитие PiratBit!
    Комментировать посты могут только пользователи прошедшие не сложную регистрацию
    Показать сообщения:    

    Теория заговора через торрент
    Скачать бесплатно Теория заговора
    Теория заговора скачать торрент
    Теория заговора смотреть онлайн
    Cкачать фильм Теория заговора бесплатно
    Теория заговора скачать торрент в хорошем качестве
    Теория заговора смотреть онлайн бесплатно в хорошем качестве


    Вы не можете начинать темы
    Вы не можете отвечать на сообщения
    Вы не можете редактировать свои сообщения
    Вы не можете удалять свои сообщения
    Вы не можете голосовать в опросах
    Вы не можете прикреплять файлы к сообщениям
    Вы можете скачивать файлы