Ссылка на приватное зеркало нашего сайта всего за 1$. Внимание количество ограничено!!!

2 сезон

iTunes

1 сезон

1

iTunes

iTunes

iTunes

1 сезон

RePack

30

ИГРА 18+

pack

ВАЖНО

!!Акция!!

Alien_RageХит недели

RePack

MK11
pack

Забери бонус

RePack

jed

!!Акция!!

Alien_Rage

RePack

fifa19

RePack

Assassins Creed: Odyssey

RePack

NEED FOR SPEED™ PAYBACK

4 сезон

9 сезон

Бесстыжие 9 сезон

Все сериалы

все сериалы на PB.wtf

RePack

FAR CRY 5
  

Теория заговора / Zulu (Жером Салль / Jérôme Salle) [2013, Франция, ЮАР, триллер, драма, криминал, BDRip 1080p,MVO] [Лицензия] pb.wtf

Теория заговора через торрент pb.wtf

Размер: 6.12 GB | Добавлен: 5 лет 10 мес. назад | Торрент скачан:223 раза
Скачать  

19-12-2014 04:56 Теория заговора Скачать торрент  


Теория заговора / Zulu


Год выпуска: 2013
Страна:Франция, ЮАР
Жанр:триллер, драма, криминал
Продолжительность:01:46:41
Перевод:Профессиональный многоголосый [Лицензия]
Субтитры: Английские
Режиссер: Жером Салль / Jérôme Salle

  • В ролях:

    Орландо Блум (Brian Epkeen), Форест Уитакер (Ali Sokhela), Таня ван Граан (Tara), Наташа Лоринг (Marjorie), Роксанна Прентис (Judith Botha), Патрик Листер, Свен Рюйгрок (David Epkeen), Келси Иган (Nicole Weiss), Конрад Кемп (Dan Fletcher), Лизе Слэббер (DPS Secretary), Тинари Ван Вик-Лутс (Claire Fletcher), Джоэлль Кеймб (Zina)

  • Описание:
    В Южной Африке, где еще царит апартеид, два полицейских разыскивают убийцу молодой девушки в негритянских гетто и в фешенебельных районах Кейптауна. Это расследование перевернет жизнь героев и заставит их бороться со своими внутренними страхами.

  • Мировая премьера:26 мая 2013


      Качество: BDRip 1080p
      Формат: MKV
      Видео кодек: AVC
      Аудио кодек:AC3
      Видео: 8095 Кбит/с, 1920x804, 24 fps, 0,165 bpp
      Аудио №1: русский / AC3 / 5.1 / 48 kHz / 448 kbps / 16 bit ||
      Аудио №2: английский (DTS, 6 ch, 1510 Кбит/с) / 48 kHz


    Код:

    Общее
    Te0r19.Zag0v0ra.2013.P.BDRip.1080p.
    Формат : Matroska
    Версия формата : Version 4 / Version 2
    Размер файла : 6,12 Гбайт
    Продолжительность : 1 ч. 46 м.
    Общий поток : 8215 Кбит/сек
    Дата кодирования : UTC 2014-12-18 12:46:01
    Программа кодирования : mkvmerge v7.2.0 ('On Every Street') 64bit built on Sep 13 2014 15:52:10
    Библиотека кодирования : libebml v1.3.0 + libmatroska v1.4.1
    DURATION : 01:46:42.080000000
    NUMBER_OF_FRAMES : 200065
    NUMBER_OF_BYTES : 358516480
    _STATISTICS_WRITING_APP : mkvmerge v7.2.0 ('On Every Street') 64bit built on Sep 13 2014 15:52:10
    _STATISTICS_WRITING_DATE_UTC : 2014-12-18 12:46:01
    _STATISTICS_TAGS : BPS DURATION NUMBER_OF_FRAMES NUMBER_OF_BYTES

    Видео
    Идентификатор : 1
    Формат : AVC
    Формат/Информация : Advanced Video Codec
    Профиль формата : High@L4.1
    Параметр CABAC формата : Да
    Параметр ReFrames формата : 5 кадров
    Идентификатор кодека : V_MPEG4/ISO/AVC
    Продолжительность : 1 ч. 46 м.
    Битрейт : 8095 Кбит/сек
    Ширина : 1920 пикселей
    Высота : 804 пикселя
    Соотношение сторон : 2,40:1
    Режим частоты кадров : Постоянный
    Частота кадров : 24,000 кадра/сек
    Цветовое пространство : YUV
    Субдискретизация насыщенности : 4:2:0
    Битовая глубина : 8 бит
    Тип развёртки : Прогрессивная
    Бит/(Пиксели*Кадры) : 0.165
    Размер потока : 4,54 Гбайт (74%)
    Библиотека кодирования : x264 core 138 r2358 9e941d1
    Настройки программы : cabac=1 / ref=5 / deblock=1:-3:-3 / analyse=0x3:0x133 / me=umh / subme=10 / psy=1 / psy_rd=1.02:0.05 / mixed_ref=0 / me_range=32 / chroma_me=1 / trellis=2 / 8x8dct=1 / cqm=0 / deadzone=21,11 / fast_pskip=0 / chroma_qp_offset=-2 / threads=6 / lookahead_threads=1 / sliced_threads=0 / nr=0 / decimate=1 / interlaced=0 / bluray_compat=0 / constrained_intra=0 / bframes=8 / b_pyramid=2 / b_adapt=2 / b_bias=0 / direct=2 / weightb=1 / open_gop=0 / weightp=2 / keyint=240 / keyint_min=24 / scenecut=40 / intra_refresh=0 / rc_lookahead=60 / rc=crf / mbtree=1 / crf=17.5 / qcomp=0.60 / qpmin=0 / qpmax=69 / qpstep=4 / vbv_maxrate=50000 / vbv_bufsize=62500 / crf_max=0.0 / nal_hrd=none / ip_ratio=1.40 / aq=1:1.00
    Язык : English
    Default : Да
    Forced : Нет
    DURATION : 01:46:41.875000000
    NUMBER_OF_FRAMES : 153645
    NUMBER_OF_BYTES : 5006080354
    _STATISTICS_WRITING_APP : mkvmerge v7.2.0 ('On Every Street') 64bit built on Sep 13 2014 15:52:10
    _STATISTICS_WRITING_DATE_UTC : 2014-12-18 12:46:01
    _STATISTICS_TAGS : BPS DURATION NUMBER_OF_FRAMES NUMBER_OF_BYTES

    Аудио #1
    Идентификатор : 2
    Формат : AC-3
    Формат/Информация : Audio Coding 3
    Расширение режима : CM (complete main)
    Параметр Endianness формата : Big
    Идентификатор кодека : A_AC3
    Продолжительность : 1 ч. 46 м.
    Вид битрейта : Постоянный
    Битрейт : 448 Кбит/сек
    Каналы : 6 каналов
    Расположение каналов : Front: L C R, Side: L R, LFE
    Частота : 48,0 КГц
    Битовая глубина : 16 бит
    Метод сжатия : С потерями
    Размер потока : 342 Мбайт (5%)
    Язык : Russian
    Default : Да
    Forced : Нет

    Аудио #2
    Идентификатор : 3
    Формат : DTS
    Формат/Информация : Digital Theater Systems
    Режим : 16
    Параметр Endianness формата : Big
    Идентификатор кодека : A_DTS
    Продолжительность : 1 ч. 46 м.
    Вид битрейта : Постоянный
    Битрейт : 1509 Кбит/сек
    Каналы : 6 каналов
    Расположение каналов : Front: L C R, Side: L R, LFE
    Частота : 48,0 КГц
    Битовая глубина : 24 бит
    Метод сжатия : С потерями
    Размер потока : 1,12 Гбайт (18%)
    Язык : English
    Default : Нет
    Forced : Нет

    Текст
    Идентификатор : 4
    Формат : UTF-8
    Идентификатор кодека : S_TEXT/UTF8
    Идентификатор кодека/Информация : UTF-8 Plain Text
    Язык : English
    Default : Нет
    Forced : Нет

    Меню
    00:00:00.000 : en:00:00:00.000
    00:07:30.792 : en:00:07:30.792
    00:11:38.000 : en:00:11:38.000
    00:18:56.542 : en:00:18:56.542
    00:24:27.542 : en:00:24:27.542
    00:33:06.542 : en:00:33:06.542
    00:39:21.875 : en:00:39:21.875
    00:45:32.125 : en:00:45:32.125
    00:52:12.458 : en:00:52:12.458
    00:59:17.000 : en:00:59:17.000
    01:02:42.750 : en:01:02:42.750
    01:10:39.833 : en:01:10:39.833
    01:16:03.375 : en:01:16:03.375
    01:23:05.500 : en:01:23:05.500
    01:29:59.625 : en:01:29:59.625
    01:42:30.750 : en:01:42:30.750

    Скриншоты:

    Каталог Новинок (Фильмы-трейлеры, Игры, Сериалы, Мультфильмы) pb.wtf



  • Скачать Теория заговора через торрент http://pic.kartinco.top/images/6/stazu.jpg Скачать фильм Теория заговора через торрент бесплантно в хорошем качестве Описание:В Южной Африке, где еще царит апартеид, два полицейских разыскивают убийцу молодой девушки в негритянских гетто и в фешенебельных ... 10 10 4
    Торрент: Зарегистрирован [2014-12-19 04:56] · скачан: 223 раз
    Статус: √ проверено
    Размер: 6.12 GB
    Как cкачать? Как скачать Теория заговора через торрент | qTorrent

    % Раздел Тема Автор DL S | L
    Фильмы (DVD фильмы) [ 3.98 GB ] Теория заговора / Zulu [2014 DVD5] R5 voovaz Скачать
    1 | 0
    Фильмы 2013 [DVDrip, WEB-DLRip, HDrip] [ 1.46 GB ] Теория заговора / Zulu [2013 HDRip многоголосый [] Ворон Скачать
    1 | 0
    # Фильмы 2013 [DVDrip, WEB-DLRip, HDrip] [ 2.73 GB ] Теория заговора / Zulu [2013 BDRip-AVC] MVO+DVO+AVO + Subs Assasinca Скачать
    1 | 0

    28-11-2019 20:33  

    Отключить всю рекламу на сайте

      Дорогой пользователь! Огромная просьба, поблагодарите релизера, оцените раздачу и оставьте свои комментарий, если Вы скачали Теория заговора через торрент бесплатно! Внесите свою лепту в развитие PiratBit!
      Комментировать посты могут только пользователи прошедшие не сложную регистрацию
      Показать сообщения:    

      Теория заговора через торрент
      Скачать бесплатно Теория заговора
      Теория заговора скачать торрент
      Теория заговора смотреть онлайн
      Cкачать фильм Теория заговора бесплатно
      Теория заговора скачать торрент в хорошем качестве
      Теория заговора смотреть онлайн бесплатно в хорошем качестве


      Вы не можете начинать темы
      Вы не можете отвечать на сообщения
      Вы не можете редактировать свои сообщения
      Вы не можете удалять свои сообщения
      Вы не можете голосовать в опросах
      Вы не можете прикреплять файлы к сообщениям
      Вы можете скачивать файлы