1 сезон

3 сезон

iTunes

1

iTunes

DUB Netflix

iTunes

13

1 сезон

RePack

30

Deluxe

pack

Легкие деньги

ВАЖНО

ИГРА 18+

pack

RePack

MK11

RePack

jed

RePack

fifa19

RePack

RDR2

RePack

NEED FOR SPEED™ PAYBACK

4 сезон

9 сезон

Бесстыжие 9 сезон

Все сериалы

все сериалы на PB.wtf

RePack

FAR CRY 5

Anonymous, добрый вечер, мы не успеваем до 1 числа собрать деньги на оплату серверов, помогите нам пожалуйста в это трудное время. В качестве благодарности мы отключим Вам всю рекламу на сайте (укажите свой ник в строку Ваше имя)!

×
  
Magnet ссылка

Телл / Tell (Дж.М.Р. Люна ) [2014, боевик, драма, криминал, WEB-DL 720p, Любительский (одноголосый) [R.A.I.M.] pb.wtf

Телл через торрент pb.wtf

Размер: 2.96 GB | Добавлен: 6 лет 6 мес. назад | Торрент скачан:21 раз
Скачать  

19-12-2014 05:30 Телл Скачать торрент  

Телл / Tell

Год выпуска: 2014
Страна: США
Жанр: боевик, драма, криминал
Продолжительность: 01:28:54
Перевод: Любительский (одноголосый) [R.A.I.M.]
Субтитры: английские,
Режиссер: Дж.М.Р. Люна
В ролях: Майло Вентимилья (Tell), Кэти Сакхофф (Beverly), Джейсон Ли (Ray), Роберт Патрик (Ashton), Алан Тьюдик (Morton), Джон Майкл Хиггинс (Huffman), Фэйзон Лав (Dwight Johnson), Оскар Нунез (Father Jack), Питер Рейнерт (Malcolm), Моника Янг (Stephanie), Joseph O'Neill (Joe), Gage Christopher (William Tell)
Описание:
Мелкому мошеннику Этану Теллу удается сорвать куш в миллион долларов и оставить других с носом. Но полиция ловит его и после отсидки, он решает жить честно. Но его продолжают преследовать коррумпированные полицейские, офицер по досрочному освобождению, участники ограбления, даже жена. У всех один вопрос. Где деньги, Зин?
Рейтинг:

MPAA: R - Лицам до 17 лет обязательно присутствие взрослого
Качество: WEB-DL 720p
Формат: MKV
Видео кодек: AVC
Аудио кодек:AC3
Видео: AVC, 1280x528 (2.40:1), 3911 kbps, 23,976 fps, 0,241 bpp
Аудио №1: русский / AC3 / 5.1 / 48 kHz / 384 kbps / 16 bit ||
Аудио №2: английский / AC3 / 5.1 / 48 kHz / 384 kbps / 16 bit
Навигация по главам: есть

Код:

General
Unique ID                                : 191533204092558495730400567555384459463 (0x9017F40C2A569A89BA2BAB3BD7C4C0C7)
Complete name                            : D:\Торенты\Tell.2014.L1.WEB-DL.720p.mkv
Format                                   : Matroska
Format version                           : Version 4 / Version 2
File size                                : 2.96 GiB
Duration                                 : 1h 28mn
Overall bit rate                         : 4 774 Kbps
Encoded date                             : UTC 2014-12-18 12:32:56
Writing application                      : mkvmerge v6.1.0 ('Old Devil') built on Mar  4 2013 09:10:42
Writing library                          : libebml v1.3.0 + libmatroska v1.4.0

Video
ID                                       : 1
Format                                   : AVC
Format/Info                              : Advanced Video Codec
Format profile                           : Main@L3.1
Format settings, CABAC                   : No
Format settings, ReFrames                : 2 frames
Codec ID                                 : V_MPEG4/ISO/AVC
Duration                                 : 1h 28mn
Bit rate                                 : 3 911 Kbps
Width                                    : 1 280 pixels
Height                                   : 528 pixels
Display aspect ratio                     : 2.40:1
Frame rate                               : 23.976 fps
Color space                              : YUV
Chroma subsampling                       : 4:2:0
Bit depth                                : 8 bits
Scan type                                : Progressive
Bits/(Pixel*Frame)                       : 0.241
Stream size                              : 2.43 GiB (82%)
Language                                 : English
Default                                  : Yes
Forced                                   : No
Color primaries                          : BT.709-5, BT.1361, IEC 61966-2-4, SMPTE RP177
Transfer characteristics                 : BT.709-5, BT.1361
Matrix coefficients                      : BT.709-5, BT.1361, IEC 61966-2-4 709, SMPTE RP177

Audio #1
ID                                       : 2
Format                                   : AC-3
Format/Info                              : Audio Coding 3
Mode extension                           : CM (complete main)
Codec ID                                 : A_AC3
Duration                                 : 1h 28mn
Bit rate mode                            : Constant
Bit rate                                 : 384 Kbps
Channel(s)                               : 6 channels
Channel positions                        : Front: L C R, Side: L R, LFE
Sampling rate                            : 48.0 KHz
Bit depth                                : 16 bits
Compression mode                         : Lossy
Stream size                              : 244 MiB (8%)
Language                                 : Russian
Default                                  : Yes
Forced                                   : No

Audio #2
ID                                       : 3
Format                                   : AC-3
Format/Info                              : Audio Coding 3
Mode extension                           : CM (complete main)
Codec ID                                 : A_AC3
Duration                                 : 1h 28mn
Bit rate mode                            : Constant
Bit rate                                 : 384 Kbps
Channel(s)                               : 6 channels
Channel positions                        : Front: L C R, Side: L R, LFE
Sampling rate                            : 48.0 KHz
Bit depth                                : 16 bits
Compression mode                         : Lossy
Stream size                              : 244 MiB (8%)
Language                                 : English
Default                                  : No
Forced                                   : No

Text
ID                                       : 4
Format                                   : UTF-8
Codec ID                                 : S_TEXT/UTF8
Codec ID/Info                            : UTF-8 Plain Text
Language                                 : English
Default                                  : No
Forced                                   : No

Menu
00:00:00.000                             : en:1
00:11:23.000                             : en:2
00:21:00.000                             : en:3
00:29:29.000                             : en:4
00:39:43.000                             : en:5
00:50:27.000                             : en:6
01:00:29.000                             : en:7
01:09:25.000                             : en:8
01:19:01.000                             : en:9

pb.wtf



Скачать Телл через торрент http://i64.fastpic.ru/big/2014/1219/47/9e909c33f864ac3a2754790939d39747.jpg Скачать фильм Телл через торрент бесплантно в хорошем качестве Описание: Мелкому мошеннику Этану Теллу удается сорвать куш в миллион долларов и оставить других с носом. Но полиция ловит его и после ... 10 10 1
Торрент: Зарегистрирован [2014-12-19 05:30] · скачан: 21 раз
Статус: √ проверено
Размер: 2.96 GB
Как cкачать? Как скачать Телл через торрент | UTorrent

% Раздел Тема Автор DL S | L
Фильмы 2019-2020 [DVDrip, WEB-DLRip, HDrip] (DUB, MVO) [ 724 MB ] Искусственный интеллект / Superintelligence [2020 WEB-DLRip ""] coc900 Скачать
2 | 0
Фильмы (WEB-DL 720p, 1080p) [ 6.66 GB ] Искусственный интеллект / Superintelligence [2020 WEB-DL 1080p] bober100 Скачать
3 | 0
Ultra HD (UHD: 2K, 4K, 8K) — видео сверхвысокой чёткости [ 84.81 GB ] Интерстеллар / Interstellar [2014 UHD BDRemux 2160p] DUB + MVO + 3xAVO [IMAX] sheker187 Скачать
1 | 0
Фильмы (WEB-DL 720p, 1080p) [ 3.08 GB ] Искусственный интеллект / Superintelligence [2020 WEB-DL 720p] bober100 Скачать
2 | 0
Фильмы 2019-2020 [DVDrip, WEB-DLRip, HDrip] (DUB, MVO) [ 1.46 GB ] Искусственный интеллект / Superintelligence [2020 WEB-DLRip] bober100 Скачать
3 | 0
Фильмы [HD 720p, 1080p] (Хороший звук DUB, MVO) [ 11.55 GB ] Интерстеллар / Interstellar [2014 BDRip 1080p [IMAX Edition] Ворон Скачать
2 | 0
T Фильмы (WEB-DL 720p, 1080p) [ 1.37 GB ] Похищая Стеллу / Kidnapping Stella [2019 WEB-DLRip 1080p] [VO] killermax2013 Скачать
1 | 0

28-11-2019 20:33  

Отключить всю рекламу на сайте

    Дорогой пользователь! Огромная просьба, поблагодарите релизера, оцените раздачу и оставьте свои комментарий, если Вы скачали Телл через торрент бесплатно! Внесите свою лепту в развитие PiratBit!
    Комментировать посты могут только пользователи прошедшие не сложную регистрацию
    Показать сообщения:    

    Телл через торрент
    Скачать бесплатно Телл
    Телл скачать торрент
    Телл смотреть онлайн
    Cкачать фильм Телл бесплатно
    Телл скачать торрент в хорошем качестве
    Телл смотреть онлайн бесплатно в хорошем качестве


    Вы не можете начинать темы
    Вы не можете отвечать на сообщения
    Вы не можете редактировать свои сообщения
    Вы не можете удалять свои сообщения
    Вы не можете голосовать в опросах
    Вы не можете прикреплять файлы к сообщениям
    Вы можете скачивать файлы