1 сезон

3 сезон

iTunes

1

iTunes

MVO

iTunes

13

1 сезон

RePack

30

Deluxe

pack

Лицензия

ВАЖНО

ИГРА 18+

pack

RePack

MK11

RePack

jed

RePack

fifa19

RePack

RDR2

RePack

NEED FOR SPEED™ PAYBACK

4 сезон

9 сезон

Бесстыжие 9 сезон

Все сериалы

все сериалы на PB.wtf

RePack

FAR CRY 5

Anonymous, добрый вечер, мы катастрофически не успеваем собрать деньги на оплату серверов, помогите нам пожалуйста 5,10,15р., для нас важна любая помощь . В качестве благодарности мы отключим Вам всю рекламу на сайте (укажите свой ник в строку Ваше имя)!

×
  
Magnet ссылка

Темнее ночи / Más negro que la noche (Генри Бедуэлл / Henry Bedwell) [2014, ужасы, DVD5] R5 pb.wtf

Темнее ночи через торрент pb.wtf

Размер: 4.14 GB | Добавлен: 6 лет 7 мес. назад | Торрент скачан:57 раз
Скачать  

19-12-2014 10:51 Темнее ночи Скачать торрент  


Темнее ночи / Más negro que la noche
«Они следят за тобой»
Страна: Мексика, Испания
Студия: Celeste Films, Filmadora Nacional, Neo Art
Жанр: ужасы
Год выпуска: 2014
Мировая премьера: 14 августа 2014
Российская премьера: 30 октября 2014, 3D
Дата выхода DVD: 9 декабря 2014
Продолжительность: 01:44:30
Перевод: Профессиональный (дублированный) [Лицензия]
Cубтитры: нет
Оригинальная аудиодорожка: нет
Режиссер: Генри Бедуэлл / Henry Bedwell
В ролях: Сурия Вега, Адриана Лувьер, Эрендира Ибарра, Она Косамикела, Маргарита Санс, Лусия Гильмаин, Хосе Мария Торре, Мигель Родарте, Сара Манни, Карла Круз
Описание: Юная Грета унаследовала огромный особняк от своей покойной тети Офелии с одним единственным условием — присматривать за ее любимцем — черным котом по кличке Беккер. Обрадованная такому повороту, девушка переезжает в особняк вместе с тремя лучшими подругами. Но однажды ночью кот погибает. Тех, кто нарушил завещание, теперь ждет жестокая расплата.
Бонусы: нет

Релиз группы:
Качество: DVD5 R5
Формат: DVD-Video
Видео кодек: MPEG2
Аудио кодек: AC3
Видео: PAL 16:9 (720x576(0.517)) MPEG Video, 25,000 кадр/сек, 5357 Кбит/сек
Аудио: Russian (Dolby AC3, 6 ch) 448 Кбит/сек, 48,0 КГц



Title: Рабочий
Size: 4.14 Gb ( 4 343 162 KBytes ) - DVD-5
Enabled regions: 1, 2, 3, 4, 5, 6, 7, 8

VTS_01 :
Play Length: 00:00:19
Video: PAL 16:9 (720x576) VBR, Auto Pan&Scan, Auto Letterboxed
Audio:
Not specified (Dolby AC3, 2 ch)

VTS_02 :
Play Length: 01:44:30
Video: PAL 16:9 (720x576) VBR, Auto Pan&Scan, Auto Letterboxed
Audio:
Not specified (Dolby AC3, 6 ch)

Menu Video:
PAL 16:9 (720x576) VBR
Auto Pan&Scan, Auto Letterboxed
Menu Subtitles:
Not specified
Menu English Language Unit :
Root Menu
Общее
Полное имя : F:\Новинки 2014\Temnee.nochi.2014.DVD5\VIDEO_TS\VTS_02_1.VOB
Формат : MPEG-PS
Размер файла : 1024 Мбайт
Продолжительность : 24 м.
Режим общего битрейта : Переменный
Общий поток : 5923 Кбит/сек

Видео
Идентификатор : 224 (0xE0)
Формат : MPEG Video
Версия формата : Version 2
Профиль формата : Main@Main
Параметр BVOP формата : Да
Параметр матрицы формата : Выборочная
Параметр GOP формата : M=3, N=15
Format_Settings_PictureStructure : Frame
Продолжительность : 24 м.
Вид битрейта : Переменный
Битрейт : 5357 Кбит/сек
Максимальный битрейт : 9000 Кбит/сек
Ширина : 720 пикселей
Высота : 576 пикселей
Соотношение сторон : 16:9
Частота кадров : 25,000 кадров/сек
Стандарт вещания : PAL
Цветовое пространство : YUV
Субдискретизация насыщенности : 4:2:0
Битовая глубина : 8 бит
Тип развёртки : Чересстрочная
Порядок развёртки : Верхнее поле первое
Метод сжатия : С потерями
Бит/(Пиксели*Кадры) : 0.517
Временной код первого кадра : 00:00:00:00
Оригинал временного кода : Group of pictures header
Размер потока : 926 Мбайт (90%)

Аудио
Идентификатор : 189 (0xBD)-128 (0x80)
Формат : AC-3
Формат/Информация : Audio Coding 3
Расширение режима : CM (complete main)
Параметр Endianness формата : Big
Режим смешивания : DVD-Video
Продолжительность : 24 м.
Вид битрейта : Постоянный
Битрейт : 448 Кбит/сек
Каналы : 6 каналов
Расположение каналов : Front: L C R, Side: L R, LFE
Частота : 48,0 КГц
Битовая глубина : 16 бит
Метод сжатия : С потерями
Размер потока : 77,4 Мбайт (8%)










pb.wtf



Скачать Темнее ночи через торрент http://i64.fastpic.ru/big/2014/1219/c0/40e2bbde36f972f2e0d63e2fcd2704c0.png Скачать фильм Темнее ночи через торрент бесплантно в хорошем качестве Описание: Юная Грета унаследовала огромный особняк от своей покойной тети Офелии с одним единственным условием — присматривать за ее ... 10 10 2
Торрент: Зарегистрирован [2014-12-19 10:51] · скачан: 57 раз
Статус: √ проверено
Размер: 4.14 GB
Как cкачать? Как скачать Темнее ночи через торрент | UTorrent

28-11-2019 20:33  

Отключить всю рекламу на сайте

    Дорогой пользователь! Огромная просьба, поблагодарите релизера, оцените раздачу и оставьте свои комментарий, если Вы скачали Темнее ночи через торрент бесплатно! Внесите свою лепту в развитие PiratBit!
    Комментировать посты могут только пользователи прошедшие не сложную регистрацию
    Показать сообщения:    

    Темнее ночи через торрент
    Скачать бесплатно Темнее ночи
    Темнее ночи скачать торрент
    Темнее ночи смотреть онлайн
    Cкачать фильм Темнее ночи бесплатно
    Темнее ночи скачать торрент в хорошем качестве
    Темнее ночи смотреть онлайн бесплатно в хорошем качестве


    Вы не можете начинать темы
    Вы не можете отвечать на сообщения
    Вы не можете редактировать свои сообщения
    Вы не можете удалять свои сообщения
    Вы не можете голосовать в опросах
    Вы не можете прикреплять файлы к сообщениям
    Вы можете скачивать файлы