Ссылка на приватное зеркало нашего сайта всего за 1$. Внимание количество ограничено!!!

2 сезон

iTunes

1 сезон

1

iTunes

iTunes

iTunes

1 сезон

RePack

30

ИГРА 18+

pack

ВАЖНО

!!Акция!!

Alien_RageХит недели

RePack

MK11
pack

Забери бонус

RePack

jed

!!Акция!!

Alien_Rage

RePack

fifa19

RePack

Assassins Creed: Odyssey

RePack

NEED FOR SPEED™ PAYBACK

4 сезон

9 сезон

Бесстыжие 9 сезон

Все сериалы

все сериалы на PB.wtf

RePack

FAR CRY 5
  

Вздымающийся ад / The Towering Inferno (Джон Гиллермин) [1974, боевик, BDRip 720p] MVO, AVO pb.wtf

Вздымающийся ад через торрент pb.wtf

Размер: 6.82 GB | Добавлен: 5 лет 10 мес. назад | Торрент скачан:33 раза
Скачать  

19-12-2014 14:54 Вздымающийся ад Скачать торрент  

Вздымающийся ад / The Towering Inferno

Год выпуска: 1974
Страна: США
Жанр: боевик
Продолжительность: 02:44:52
Перевод: профессиональный многоголосый, авторский
Субтитры: английские

Режиссёр: Джон Гиллермин

В ролях: Стив Маккуин, Пол Ньюман, Уильям Холден, Фэй Данэуэй, Фред Астер, Ричард Чемберлен, Сьюзан Блэйкли, О. Дж. Симпсон, Роберт Вагнер, Сьюзэн Флэннери, Норман Бёртон, Джек Коллинс (IV), Дон Гордон, Фелтон Перри, Грегори Сьерра, Эрни Ф. Орсатти, Дэбни Коулмэн, Росс Эллиотт, Олан Соул, Пол Коми, Эрик Л. Нельсон, Джон Мойо, Хэнк Робинсон, Уильям Трейлор, Дженнифер Джонс

Описание: В роковую ночь группа несчастных гостей остаётся отрезанной страшным пожаром на верхних этажах громадного небоскрёба. Архитектор здания, ставший вынужденным узником своего творения, пытается помочь шефу пожарных спасти людей... Фильм снят на основе документальных романов «Башня», написанного Ричардом Мартином Штерном, и «Стеклянный ад» («Стеклянная башня»), написанного Томасом Н. Скортиа и Фрэнком М. Робинсоном.



Качество: BDRip 720p Сравнение с исходником
Формат: MKV
Видео кодек: H.264
Аудио кодек: AC3
Видео: 1280x546, 4968 kbps, 23.976 кадра/с, 0.297 bpp
Аудио 1: русский, AC3, 192 kbps, 2 ch, 48 kHz [профессиональный многоголосый]
Аудио 2: русский, AC3, 192 kbps, 2 ch, 48 kHz [авторский, Андрей Гаврилов]
Аудио 3: английский, AC3, 448 kbps, 6 ch, 48 kHz [оригинал]

Имеются неименованные главы/чаптеры.
приз «Давид» Донателло» за лучший иностранный фильм в Италии в 1975 году

Британская академия, 1976 год
Победитель (1):
Лучшая мужская роль второго плана (Фред Астер)

Номинации (2):
Лучшая работа оператора
Лучшая работа художника

Оскар, 1975 год
Победитель (3):
Лучшая работа оператора
Лучший монтаж
Лучшая песня — «We May Never Love Like This Again»

Номинации (5):
Лучший фильм
Лучшая мужская роль второго плана (Фред Астер)
Лучшие декорации
Лучший звук
Лучший саундтрек к драматическому фильму

Золотой глобус, 1975 год
Победитель (2):
Лучшая мужская роль второго плана (Фред Астер)
Самый многообещающий новичок среди женщин (Сьюзэн Флэннери)

Номинации (3):
Лучшая женская роль второго плана (Дженнифер Джонс)
Лучший сценарий
Лучшая песня — «We May Never Love Like This Again»
Общее
Уникальный идентификатор : 211467601934758780344866857278408572647 (0x9F172DBE31D99694B6110894BA613EE7)
Полное имя : D:VideoVzdymajushijsja ad.1974.BDRip.720p.mkv
Формат : Matroska
Версия формата : Version 4 / Version 2
Размер файла : 6,82 Гбайт
Продолжительность : 2 ч. 44 м.
Общий поток : 5918 Кбит/сек
Дата кодирования : UTC 2014-12-19 13:31:26
Программа кодирования : mkvmerge v7.4.0 ('Circles') 64bit built on Dec 12 2014 12:19:56
Библиотека кодирования : libebml v1.3.0 + libmatroska v1.4.1
DURATION : 02:35:25.941000000
NUMBER_OF_FRAMES : 1395
NUMBER_OF_BYTES : 52069
_STATISTICS_WRITING_APP : mkvmerge v7.4.0 ('Circles') 64bit built on Dec 12 2014 12:19:56
_STATISTICS_WRITING_DATE_UTC : 2014-12-19 13:31:26
_STATISTICS_TAGS : BPS DURATION NUMBER_OF_FRAMES NUMBER_OF_BYTES

Видео
Идентификатор : 1
Формат : AVC
Формат/Информация : Advanced Video Codec
Профиль формата : High@L4.1
Параметр CABAC формата : Да
Параметр ReFrames формата : 9 кадров
Идентификатор кодека : V_MPEG4/ISO/AVC
Продолжительность : 2 ч. 44 м.
Битрейт : 4968 Кбит/сек
Ширина : 1280 пикселей
Высота : 546 пикселей
Соотношение сторон : 2,35:1
Режим частоты кадров : Постоянный
Частота кадров : 23,976 кадра/сек
Цветовое пространство : YUV
Субдискретизация насыщенности : 4:2:0
Битовая глубина : 8 бит
Тип развёртки : Прогрессивная
Бит/(Пиксели*Кадры) : 0.297
Размер потока : 5,72 Гбайт (84%)
Заголовок : BDRip -- STarankov
Библиотека кодирования : x264 core 142 r2431 ac76440
Настройки программы : cabac=1 / ref=9 / deblock=1:-1:-1 / analyse=0x3:0x113 / me=umh / subme=10 / psy=1 / psy_rd=1.00:0.15 / mixed_ref=1 / me_range=32 / chroma_me=1 / trellis=2 / 8x8dct=1 / cqm=0 / deadzone=21,11 / fast_pskip=1 / chroma_qp_offset=-3 / threads=6 / lookahead_threads=1 / sliced_threads=0 / nr=0 / decimate=1 / interlaced=0 / bluray_compat=0 / constrained_intra=0 / bframes=8 / b_pyramid=2 / b_adapt=2 / b_bias=0 / direct=3 / weightb=1 / open_gop=0 / weightp=2 / keyint=230 / keyint_min=23 / scenecut=40 / intra_refresh=0 / rc_lookahead=40 / rc=crf / mbtree=0 / crf=17.0 / qcomp=0.60 / qpmin=0 / qpmax=69 / qpstep=4 / vbv_maxrate=40000 / vbv_bufsize=50000 / crf_max=0.0 / nal_hrd=none / filler=0 / ip_ratio=1.40 / pb_ratio=1.30 / aq=1:1.00
Язык : English
Default : Да
Forced : Нет
DURATION : 02:44:52.925000000
NUMBER_OF_FRAMES : 237193
NUMBER_OF_BYTES : 6286703994
_STATISTICS_WRITING_APP : mkvmerge v7.4.0 ('Circles') 64bit built on Dec 12 2014 12:19:56
_STATISTICS_WRITING_DATE_UTC : 2014-12-19 13:31:26
_STATISTICS_TAGS : BPS DURATION NUMBER_OF_FRAMES NUMBER_OF_BYTES

Аудио #1
Идентификатор : 2
Формат : AC-3
Формат/Информация : Audio Coding 3
Расширение режима : CM (complete main)
Параметр Endianness формата : Big
Идентификатор кодека : A_AC3
Продолжительность : 2 ч. 44 м.
Вид битрейта : Постоянный
Битрейт : 192 Кбит/сек
Каналы : 2 канала
Расположение каналов : Front: L R
Частота : 48,0 КГц
Битовая глубина : 16 бит
Метод сжатия : С потерями
Размер потока : 226 Мбайт (3%)
Заголовок : MVO
Язык : Russian
Default : Да
Forced : Нет

Аудио #2
Идентификатор : 3
Формат : AC-3
Формат/Информация : Audio Coding 3
Расширение режима : CM (complete main)
Параметр Endianness формата : Big
Идентификатор кодека : A_AC3
Продолжительность : 2 ч. 44 м.
Вид битрейта : Постоянный
Битрейт : 192 Кбит/сек
Каналы : 2 канала
Расположение каналов : Front: L R
Частота : 48,0 КГц
Битовая глубина : 16 бит
Метод сжатия : С потерями
Размер потока : 226 Мбайт (3%)
Заголовок : AVO (Андрей Гаврилов)
Язык : Russian
Default : Нет
Forced : Нет

Аудио #3
Идентификатор : 4
Формат : AC-3
Формат/Информация : Audio Coding 3
Расширение режима : CM (complete main)
Параметр Endianness формата : Big
Идентификатор кодека : A_AC3
Продолжительность : 2 ч. 44 м.
Вид битрейта : Постоянный
Битрейт : 448 Кбит/сек
Каналы : 6 каналов
Расположение каналов : Front: L C R, Side: L R, LFE
Частота : 48,0 КГц
Битовая глубина : 16 бит
Метод сжатия : С потерями
Размер потока : 528 Мбайт (8%)
Заголовок : Original
Язык : English
Default : Нет
Forced : Нет

Текст
Идентификатор : 5
Формат : UTF-8
Идентификатор кодека : S_TEXT/UTF8
Идентификатор кодека/Информация : UTF-8 Plain Text
Заголовок : английский
Язык : English
Default : Нет
Forced : Нет

Меню
00:00:00.000 : en:00:00:00.000
00:03:35.006 : en:00:03:35.006
00:09:03.960 : en:00:09:03.960
00:11:28.855 : en:00:11:28.855
00:13:48.870 : en:00:13:48.870
00:18:44.874 : en:00:18:44.874
00:22:54.832 : en:00:22:54.832
00:28:43.931 : en:00:28:43.931
00:31:52.869 : en:00:31:52.869
00:35:44.642 : en:00:35:44.642
00:41:39.914 : en:00:41:39.914
00:46:45.094 : en:00:46:45.094
00:52:07.458 : en:00:52:07.458
00:55:31.286 : en:00:55:31.286
00:58:05.732 : en:00:58:05.732
01:06:32.238 : en:01:06:32.238
01:10:12.792 : en:01:10:12.792
01:14:07.735 : en:01:14:07.735
01:23:33.383 : en:01:23:33.383
01:28:15.999 : en:01:28:15.999
01:34:08.351 : en:01:34:08.351
01:43:06.472 : en:01:43:06.472
01:46:31.302 : en:01:46:31.302
01:49:05.748 : en:01:49:05.748
01:57:57.404 : en:01:57:57.404
02:00:46.865 : en:02:00:46.865
02:07:09.497 : en:02:07:09.497
02:14:34.233 : en:02:14:34.233
02:21:47.999 : en:02:21:47.999
02:30:38.363 : en:02:30:38.363
02:36:50.067 : en:02:36:50.067
02:41:24.842 : en:02:41:24.842
pb.wtf



Скачать Вздымающийся ад через торрент http://i64.fastpic.ru/big/2014/1219/dd/c46a799c9d69a091c082af4b87314fdd.jpg Скачать фильм Вздымающийся ад через торрент бесплантно в хорошем качестве Описание: В роковую ночь группа несчастных гостей остаётся отрезанной страшным пожаром на верхних этажах громадного небоскрёба. Архитектор ... 7.7 10 6
Торрент: Зарегистрирован [2014-12-19 14:54] · скачан: 33 раз
Статус: √ проверено
Размер: 6.82 GB
Как cкачать? Как скачать Вздымающийся ад через торрент | qTorrent

% Раздел Тема Автор DL S | L
Фильмы [HD 720p, 1080p] (Хороший звук DUB, MVO) [ 15.09 GB ] Вздымающийся ад / The Towering Inferno [1974 BDRip 1080p] MVO AVO msltel Скачать
1 | 0

28-11-2019 20:33  

Отключить всю рекламу на сайте

    Дорогой пользователь! Огромная просьба, поблагодарите релизера, оцените раздачу и оставьте свои комментарий, если Вы скачали Вздымающийся ад через торрент бесплатно! Внесите свою лепту в развитие PiratBit!
    Комментировать посты могут только пользователи прошедшие не сложную регистрацию
    Показать сообщения:    

    Вздымающийся ад через торрент
    Скачать бесплатно Вздымающийся ад
    Вздымающийся ад скачать торрент
    Вздымающийся ад смотреть онлайн
    Cкачать фильм Вздымающийся ад бесплатно
    Вздымающийся ад скачать торрент в хорошем качестве
    Вздымающийся ад смотреть онлайн бесплатно в хорошем качестве


    Вы не можете начинать темы
    Вы не можете отвечать на сообщения
    Вы не можете редактировать свои сообщения
    Вы не можете удалять свои сообщения
    Вы не можете голосовать в опросах
    Вы не можете прикреплять файлы к сообщениям
    Вы можете скачивать файлы