Ссылка на приватное зеркало нашего сайта всего за 1$. Внимание количество ограничено!!!

2 сезон

iTunes

1 сезон

1

iTunes

iTunes

iTunes

1 сезон

RePack

30

ИГРА 18+

pack

ВАЖНО

!!Акция!!

Alien_RageХит недели

RePack

MK11
pack

Забери бонус

RePack

jed

!!Акция!!

Alien_Rage

RePack

fifa19

RePack

Assassins Creed: Odyssey

RePack

NEED FOR SPEED™ PAYBACK

4 сезон

9 сезон

Бесстыжие 9 сезон

Все сериалы

все сериалы на PB.wtf

RePack

FAR CRY 5
  

Отмороженные / Морозилка / Freezer (Микаэл Саломон ) [2014, триллер, BDRip [720p], Профессиональное (многоголосое) [лицензия] pb.wtf

Отмороженные через торрент pb.wtf

Размер: 5.15 GB | Добавлен: 5 лет 10 мес. назад | Торрент скачан:167 раз
Скачать  

20-12-2014 05:50 Отмороженные Скачать торрент  


Отмороженные / Морозилка / Freezer
«Only the cold bloodied will survive»

Год выпуска:2014
Страна: США
Жанр:триллер
Продолжительность:01:22:10
Перевод:Профессиональное (многоголосое) [лицензия]
Субтитры: Русские, Английские
Режиссер:Микаэл Саломон

  • В ролях:

    Дилан МакДермотт (Robert), Юлия Снигирь (Alisa), Питер Фачинелли (Detective Sam Gurov), Милан Малисич (Stepan), Андрей Ивченко (Kiril), Паскаль Петарди (Vadim), Дэвид МакНалли (Detective Al Dorian), Маркус Парило (Oleg)
  • Описание:
    Роберт Сондерс, обычный механик, потерял сознание на своем дне рождения и очнулся в морозильнике. Появившиеся русские бандиты начинают обвинять его в краже 8 миллионов долларов. Чтоб Роберт быстрее отдал деньги, бандиты начинают пытать его холодом. Температура падает. Страх растет. Перед Робертом встает выбор, замерзнуть от холода или быть убитым русскими бандитами, так как его все равно живым не отпустят. Но может есть третий выбор...

  • Мировая премьера:17 января 2014
    Качество: BDRip [720p]
    Формат:MKV
    Видео кодек: AVC
    Аудио кодек:AC3
    Видео: MPEG4 Video (H264) 1280x534 (163:68) 23.976fps, 7712 Kb/s
    Аудио: Русский: Dolby AC3 48000Hz 6ch 448kbps
    Аудио: Английский: Dolby AC3 48000Hz 6ch 640kbps
    Otmorozhennye.2014.P.BDRip.720p.mkv.mkv
    Format : Matroska
    Format version : Version 2
    File size : 5.15 GiB
    Duration : 1h 22mn
    Overall bit rate : 8 979 Kbps
    Movie name : Tonik
    Encoded date : UTC 2014-12-19 13:25:36
    Writing application : mkvmerge v7.4.0 ('Circles') 64bit built on Dec 12 2014 12:19:56
    Writing library : libebml v1.3.0 + libmatroska v1.4.1
    DURATION : 01:19:13.165000000
    NUMBER_OF_FRAMES : 1108
    NUMBER_OF_BYTES : 30884
    _STATISTICS_WRITING_APP : mkvmerge v7.4.0 ('Circles') 64bit built on Dec 12 2014 12:19:56
    _STATISTICS_WRITING_DATE_UTC : 2014-12-19 13:25:36
    _STATISTICS_TAGS : BPS DURATION NUMBER_OF_FRAMES NUMBER_OF_BYTES

    Video
    ID : 1
    Format : AVC
    Format/Info : Advanced Video Codec
    Format profile : High@L4.1
    Format settings, CABAC : Yes
    Format settings, ReFrames : 12 frames
    Codec ID : V_MPEG4/ISO/AVC
    Duration : 1h 22mn
    Bit rate : 7 712 Kbps
    Width : 1 280 pixels
    Height : 534 pixels
    Display aspect ratio : 2.40:1
    Frame rate mode : Constant
    Frame rate : 23.976 fps
    Color space : YUV
    Chroma subsampling : 4:2:0
    Bit depth : 8 bits
    Scan type : Progressive
    Bits/(Pixel*Frame) : 0.471
    Stream size : 4.43 GiB (86%)
    Writing library : x264 core 133 r2334 a3ac64b
    Encoding settings : cabac=1 / ref=12 / deblock=1:-3:-3 / analyse=0x3:0x133 / me=umh / subme=11 / psy=1 / psy_rd=1.05:0.00 / mixed_ref=1 / me_range=24 / chroma_me=1 / trellis=2 / 8x8dct=1 / cqm=0 / deadzone=21,11 / fast_pskip=0 / chroma_qp_offset=-2 / threads=6 / lookahead_threads=1 / sliced_threads=0 / nr=0 / decimate=0 / interlaced=0 / bluray_compat=0 / constrained_intra=0 / bframes=10 / b_pyramid=2 / b_adapt=2 / b_bias=0 / direct=3 / weightb=1 / open_gop=0 / weightp=2 / keyint=250 / keyint_min=23 / scenecut=40 / intra_refresh=0 / rc=crf / mbtree=0 / crf=14.4 / qcomp=0.75 / qpmin=0 / qpmax=69 / qpstep=4 / ip_ratio=1.40 / pb_ratio=1.30 / aq=1:0.80
    Language : English
    Default : Yes
    Forced : No
    DURATION : 01:22:10.843000000
    NUMBER_OF_FRAMES : 118222
    NUMBER_OF_BYTES : 4862155561
    _STATISTICS_WRITING_APP : mkvmerge v7.4.0 ('Circles') 64bit built on Dec 12 2014 12:19:56
    _STATISTICS_WRITING_DATE_UTC : 2014-12-19 13:25:36
    _STATISTICS_TAGS : BPS DURATION NUMBER_OF_FRAMES NUMBER_OF_BYTES

    Audio #1
    ID : 2
    Format : AC-3
    Format/Info : Audio Coding 3
    Mode extension : CM (complete main)
    Format settings, Endianness : Big
    Codec ID : A_AC3
    Duration : 1h 22mn
    Bit rate mode : Constant
    Bit rate : 448 Kbps
    Channel count : 6 channels
    Channel positions : Front: L C R, Side: L R, LFE
    Sampling rate : 48.0 KHz
    Bit depth : 16 bits
    Compression mode : Lossy
    Stream size : 263 MiB (5%)
    Language : Russian
    Default : Yes
    Forced : No

    Audio #2
    ID : 3
    Format : AC-3
    Format/Info : Audio Coding 3
    Mode extension : CM (complete main)
    Format settings, Endianness : Big
    Codec ID : A_AC3
    Duration : 1h 22mn
    Bit rate mode : Constant
    Bit rate : 640 Kbps
    Channel count : 6 channels
    Channel positions : Front: L C R, Side: L R, LFE
    Sampling rate : 48.0 KHz
    Bit depth : 16 bits
    Compression mode : Lossy
    Stream size : 376 MiB (7%)
    Language : English
    Default : No
    Forced : No

    Text #1
    ID : 4
    Format : UTF-8
    Codec ID : S_TEXT/UTF8
    Codec ID/Info : UTF-8 Plain Text
    Language : Russian
    Default : No
    Forced : No

    Text #2
    ID : 5
    Format : UTF-8
    Codec ID : S_TEXT/UTF8
    Codec ID/Info : UTF-8 Plain Text
    Language : English
    Default : No
    Forced : No

    Menu
    00:00:00.000 : en:00:00:00.000
    00:08:02.732 : en:00:08:02.732
    00:15:16.874 : en:00:15:16.874
    00:21:51.227 : en:00:21:51.227
    00:32:45.672 : en:00:32:45.672
    00:41:03.670 : en:00:41:03.670
    00:44:45.683 : en:00:44:45.683
    00:53:27.663 : en:00:53:27.663
    00:58:06.108 : en:00:58:06.108
    01:09:29.999 : en:01:09:29.999
    01:13:34.118 : en:01:13:34.118
    01:19:56.041 : en:01:19:56.041


    Скриншоты:

    Каталог Новинок (Фильмы-трейлеры, Игры, Сериалы, Мультфильмы)

    © Оформление by Raven
    pb.wtf



  • Скачать Отмороженные через торрент http://pic.kartinco.top/images/6/ordi9.jpg Скачать фильм Отмороженные через торрент бесплантно в хорошем качестве Описание:Роберт Сондерс, обычный механик, потерял сознание на своем дне рождения и очнулся в морозильнике. Появившиеся русские бандиты ... 10 10 4
    Торрент: Зарегистрирован [2014-12-20 05:50] · скачан: 167 раз
    Статус: √ проверено
    Размер: 5.15 GB
    Как cкачать? Как скачать Отмороженные через торрент | qTorrent

    % Раздел Тема Автор DL S | L
    Фильмы 2014 [DVDrip, WEB-DLRip, HDrip] [ 1.37 GB ] Отмороженные / Морозилка / Freezer [2014 HDRip Профессиональное [лицензия] Ворон Скачать
    1 | 0
    Фильмы 2014 [DVDrip, WEB-DLRip, HDrip] [ 1.46 GB ] Отмороженные / Морозилка / Freezer [2014 HDRip многоголосый] Ворон Скачать
    1 | 0

    28-11-2019 20:33  

    Отключить всю рекламу на сайте

    20-12-2014 07:16 Отмороженные Скачать торрент  

    "Русские бандиты начиют пытать его холодом..." Это типа привезли его в Сибирь и оставили там жить.. pb.wtf



    20-12-2014 08:00 Отмороженные Скачать торрент  

    Русские снова стали кинозлодеями, а то всё арабы да корейцы. Тенденция политики однако.pb.wtf



    20-12-2014 08:15 Отмороженные Скачать торрент  

    Тупорылые пиндосы,бл..... rofl с них пора уже получать за использование брэнда"Русский бандит".Сборище вафлёров,а не страна.pb.wtf



      Дорогой пользователь! Огромная просьба, поблагодарите релизера, оцените раздачу и оставьте свои комментарий, если Вы скачали Отмороженные через торрент бесплатно! Внесите свою лепту в развитие PiratBit!
      Комментировать посты могут только пользователи прошедшие не сложную регистрацию
      Показать сообщения:    

      Отмороженные через торрент
      Скачать бесплатно Отмороженные
      Отмороженные скачать торрент
      Отмороженные смотреть онлайн
      Cкачать фильм Отмороженные бесплатно
      Отмороженные скачать торрент в хорошем качестве
      Отмороженные смотреть онлайн бесплатно в хорошем качестве


      Вы не можете начинать темы
      Вы не можете отвечать на сообщения
      Вы не можете редактировать свои сообщения
      Вы не можете удалять свои сообщения
      Вы не можете голосовать в опросах
      Вы не можете прикреплять файлы к сообщениям
      Вы можете скачивать файлы