Достать ножи: Стеклянная луковица

MVO

Добыча

Дубляж

Уэнсдэй

1 сезон

Тор

Дубляж

13 клиническая

1 сезон

Жестокая ночь

MVO

Одни из нас

1 сезон

Deluxe

pack

Рекомендуем

30

Пиратка

ВАЖНО

ВАЖНО

Ghostwire

Пиратка

jed

RePack

nioh2

RePack

RDR2

RePack

NEED FOR SPEED™ PAYBACK

RePack

скачать торрент

Кинопоиск HD

Острые козырьки 6 сезон

6 сезон

FAR CRY 6

RePack

скачать торрент

Лицензия

скачать торрент

MVO

1

1 сезон

скачать торрент

1 сезон

скачать торрент

Лицензия

  

Семейка монстров / The Boxtrolls (Грэхэм Эннэйбл , Энтони Стакки ) [2014, мультфильм, фэнтези, комедия, BDRip 1080p, Дубляж] iTunes Горизонтальная анаморфная стереопара

Семейка монстров через торрент pb.wtf

Размер: 8.7 GB | Добавлен: 8 лет 1 мес. назад | Торрент скачан:262 раза
| Скачать | Поддержите нас   

20-12-2014 09:38 Семейка монстров Скачать торрент  



Семейка монстров / The Boxtrolls


Год выпуска: 2014
Страна: США
Жанр: мультфильм, фэнтези, комедия, приключения, семейный
Продолжительность: 01:36:10
Перевод: Дубляж - [Лицензия / iTunes]
Режиссер: Грэхэм Эннэйбл , Энтони Стакки
В ролях: Бен Кингсли (Archibald Snatcher, озвучка), Джаред Харрис (Lord Portley-Rind, озвучка), Ник Фрост (Mr. Trout, озвучка), Ричард Айоади (Mr. Pickles, озвучка), Трэйси Морган (Mr. Gristle, озвучка), Ди Брэдли Бейкер (Fish / Wheels / Bucket, озвучка), Стивен Блум (Shoe / Sparky, озвучка), Ника Футтерман (Oil Can / Knickers, озвучка), Пэт Фрэли (Fragile / Sweets, озвучка), Фред Татаскьор (Clocks / Specs, озвучка), Макс Митчелл (Baby Eggs, озвучка), Айзек Хемпстед-Райт (Eggs, озвучка)
Описание:
Ему не повезло родиться в роскошном замке. Вместе с семейкой забавных монстров юноша поселился прямо под мостовой. Изысканные костюмы ему заменила обычная коробка. Зато каждую ночь он мог разгуливать по темным улицам в поисках новых приключений. Но однажды он встретил очаровательную девчушку из высшего общества - и мир вокруг изменился навсегда.
Рейтинг:

MPAA: PG - Рекомендуется присутствие родителей
Качество: BDRip 1080p
Формат 3D: [Anamorph SideBySide / Горизонтальная анаморфная стереопара]
Формат: MKV
Видео кодек: AVC
Аудио кодек:AC3
Видео: MPEG-4 AVC, 11.7 Mбит/с, 1920x1080, 23.976 кадра/сек
Аудио: русский / AC3 / 5.1 / 48 kHz / 384 kbps / 16 bit ||
Аудио: английский, АС3, 640 Кбит/сек, 6 каналов, 48,0 КГц
Навигация по главам: есть

Код:

E:с торрентовTheBoxtrolls(2014)3D-HalfSBS.mkv
  General
    Unique ID : 176448636540979130152982552336034119616 (0x84BEC5725901A8BEAFFD62FA562B3FC0)
    Complete name : E:с торрентовTheBoxtrolls(2014)3D-HalfSBS.mkv
    Format : Matroska
    Format version : Version 2
    File size : 8.70 GiB
    Duration : 1h 36mn
    Overall bit rate : 12.9 Mbps
    Movie name : Семейка монстров / The Boxtrolls (2014) 3D
    Encoded date : UTC 2014-12-19 17:14:01
    Writing application : mkvmerge v5.8.0 ('No Sleep / Pillow') built on Sep  2 2012 15:37:04
    Writing library : libebml v1.2.3 + libmatroska v1.3.0
  Video #1
    ID : 1
    Format : AVC
    Format/Info : Advanced Video Codec
    Format profile : [email protected]
    Format settings, CABAC : Yes
    Format settings, ReFrames : 4 frames
    Codec ID : V_MPEG4/ISO/AVC
    Duration : 1h 36mn
    Bit rate : 11.7 Mbps
    Width : 1 920 pixels
    Height : 1 080 pixels
    Display aspect ratio : 16:9
    Frame rate mode : Constant
    Frame rate : 23.976 fps
    Color space : YUV
    Chroma subsampling : 4:2:0
    Bit depth : 8 bits
    Scan type : Progressive
    Bits/(Pixel*Frame) : 0.235
    Stream size : 7.84 GiB (90%)
    Title : BDRip by [email protected]
    Writing library : x264 core 133 r2334kMod a3ac64b
    Encoding settings : cabac=1 / ref=4 / deblock=1:-3:-3 / analyse=0x3:0x133 / me=umh / subme=11 / psy=1 / fade_compensate=0.00 / psy_rd=1.00:0.00 / mixed_ref=1 / me_range=24 / chroma_me=1 / trellis=2 / 8x8dct=1 / cqm=0 / deadzone=21,11 / fast_pskip=0 / chroma_qp_offset=-2 / threads=24 / lookahead_threads=4 / sliced_threads=0 / nr=0 / decimate=0 / interlaced=0 / bluray_compat=0 / constrained_intra=0 / bframes=7 / b_pyramid=2 / b_adapt=2 / b_bias=0 / direct=3 / weightb=1 / open_gop=0 / weightp=2 / keyint=250 / keyint_min=23 / scenecut=40 / intra_refresh=0 / rc=crf / mbtree=0 / crf=18.7000 / qcomp=0.75 / qpmin=0 / qpmax=69 / qpstep=4 / frame-packing=3 / ip_ratio=1.30 / pb_ratio=1.10 / aq=1:1.00
    Language : English
    Default : Yes
    Forced : No
  Audio #2
    ID : 2
    Format : AC-3
    Format/Info : Audio Coding 3
    Mode extension : CM (complete main)
    Format settings, Endianness : Big
    Codec ID : A_AC3
    Duration : 1h 36mn
    Bit rate mode : Constant
    Bit rate : 384 Kbps
    Channel(s) : 6 channels
    Channel positions : Front: L C R, Side: L R, LFE
    Sampling rate : 48.0 KHz
    Bit depth : 16 bits
    Compression mode : Lossy
    Stream size : 264 MiB (3%)
    Title : Дубляж - iTunes
    Language : Russian
    Default : Yes
    Forced : No
  Audio #3
    ID : 3
    Format : AC-3
    Format/Info : Audio Coding 3
    Mode extension : CM (complete main)
    Format settings, Endianness : Big
    Codec ID : A_AC3
    Duration : 1h 36mn
    Bit rate mode : Constant
    Bit rate : 640 Kbps
    Channel(s) : 6 channels
    Channel positions : Front: L C R, Side: L R, LFE
    Sampling rate : 48.0 KHz
    Bit depth : 16 bits
    Compression mode : Lossy
    Stream size : 440 MiB (5%)
    Title : Original
    Language : English
    Default : No
    Forced : No
  Menu
    00:00:00.000 : en:00:00:00.000
    00:05:52.143 : en:00:05:52.143
    00:11:53.296 : en:00:11:53.296
    00:15:21.337 : en:00:15:21.337
    00:20:22.805 : en:00:20:22.805
    00:27:08.502 : en:00:27:08.502
    00:32:25.944 : en:00:32:25.944
    00:36:26.518 : en:00:36:26.518
    00:41:45.920 : en:00:41:45.920
    00:45:45.284 : en:00:45:45.284
    00:51:57.281 : en:00:51:57.281
    00:56:00.107 : en:00:56:00.107
    01:02:03.887 : en:01:02:03.887
    01:07:26.209 : en:01:07:26.209
    01:11:27.867 : en:01:11:27.867
    01:16:27.875 : en:01:16:27.875
    01:22:05.671 : en:01:22:05.671
    01:25:30.375 : en:01:25:30.375
    01:27:33.248 : en:01:27:33.248
    01:30:00.687 : en:01:30:00.687




Скачать Семейка монстров через торрент http://i67.fastpic.ru/big/2014/1219/c5/986b90494d34b32c5b758332128c5dc5.png Скачать, смотреть онлайн Семейка монстров бесплантно в хорошем качестве Описание: Ему не повезло родиться в роскошном замке. Вместе с семейкой забавных монстров юноша поселился прямо под мостовой. Изысканные ... 10 10 10
Торрент: Зарегистрирован [2014-12-20 09:38] · скачан: 262 раз
Статус: √ проверено
Размер: 8.7 GB
Как cкачать? Как скачать Семейка монстров через торрент | UTorrent

28-11-2019 20:33  


Отключить вcю реклaмy на сайте, в т.ч. и в плеере онлайн просмотра!

    Дорогой пользователь! Огромная просьба, поблагодарите релизера, оцените раздачу и оставьте свои комментарий, если Вы скачали Семейка монстров через торрент бесплатно!!
    Комментировать посты могут только пользователи прошедшие не сложную регистрацию
    Показать сообщения:    


    Семейка монстров через торрент
    Скачать бесплатно Семейка монстров
    Семейка монстров скачать торрент
    Семейка монстров смотреть онлайн
    Cкачать фильм Семейка монстров бесплатно
    Семейка монстров скачать торрент в хорошем качестве
    Семейка монстров смотреть онлайн бесплатно в хорошем качестве
    Вы не можете начинать темы
    Вы не можете отвечать на сообщения
    Вы не можете редактировать свои сообщения
    Вы не можете удалять свои сообщения
    Вы не можете голосовать в опросах
    Вы не можете прикреплять файлы к сообщениям
    Вы можете скачивать файлы
    Семейка монстров / The Boxtrolls [2014, мультфильм, фэнтези, комедия, BDRip 1080p, Дубляж] iTunes Горизонтальная анаморфная стереопара смотреть онлайн, скачать торрент picoco.icu