1 сезон

3 сезон

iTunes

1

iTunes

MVO

iTunes

13

1 сезон

RePack

30

Deluxe

pack

Лицензия

ВАЖНО

ИГРА 18+

pack

RePack

MK11

RePack

jed

RePack

fifa19

RePack

RDR2

RePack

NEED FOR SPEED™ PAYBACK

4 сезон

9 сезон

Бесстыжие 9 сезон

Все сериалы

все сериалы на PB.wtf

RePack

FAR CRY 5

Anonymous, добрый день, мы катастрофически не успеваем собрать деньги на оплату серверов, помогите нам пожалуйста 5,10,15р., для нас важна любая помощь . В качестве благодарности мы отключим Вам всю рекламу на сайте (укажите свой ник в строку Ваше имя)!

×
  
Magnet ссылка

Теория заговора / Zulu (Жером Салль / Jérôme Salle) [2014, триллер, драма, криминал, DVD5] R5 pb.wtf

Теория заговора через торрент pb.wtf

Размер: 3.98 GB | Добавлен: 6 лет 7 мес. назад | Торрент скачан:80 раз
Скачать  

20-12-2014 10:56 Теория заговора Скачать торрент  


Теория заговора / Zulu
Страна: Франция, ЮАР
Студия: Canal+ [fr], Ciné, Eskwad, Lobster Tree, M6, M6 Films, Pathé Cinéma, W9
Жанр: триллер, драма, криминал
Год выпуска: 2014
Мировая премьера: 26 мая 2013
Российская премьера: 25 сентября 2014
Дата выхода DVD: 16 декабря 2014
Продолжительность: 01:42:26
Перевод: Профессиональный (многоголосый закадровый) [Лицензия]
Cубтитры: нет
Оригинальная аудиодорожка: нет
Режиссер: Жером Салль / Jérôme Salle
В ролях: Орландо Блум, Форест Уитакер, Таня ван Граан, Наташа Лоринг, Роксанна Прентис, Патрик Листер, Свен Рюйгрок, Келси Иган, Конрад Кемп, Лизе Слэббер
Описание: Южная Африка. Кейптаун. 2012 год. Отдел серийных убийств полиции Кейптауна начинает расследование зверского убийства белой девушки. Казавшееся тривиальным преступление быстро превращается в круговорот перестрелок и смертей, ибо в деле оказываются замешаны сначала торговцы наркотиками, потом банды совершенно отмороженных головорезов, а дальше полицейские выходят на интересы могущественной транснациональной корпорации.
В жестком, динамичном и бескомпромиссном криминальном триллере, где кровь льется рекой, героям трудно выжить и не всем это удается. Но детективы Али Сокил и Брайан Ипкин идут до конца, какую бы цену им не пришлось за это заплатить.

Бонусы: нет

Релиз группы:
Качество: DVD5 R5
Формат: DVD-Video
Видео кодек: MPEG2
Аудио кодек: AC3
Видео: PAL 16:9 (720x576(0.513)) MPEG Video, 25,000 кадр/сек, 5318 Кбит/сек
Аудио: Russian (Dolby AC3, 6 ch) 448 Кбит/сек, 48,0 КГц



Title: Рабочий
Size: 3.98 Gb ( 4 177 732 KBytes ) - DVD-5
Enabled regions: 1, 2, 3, 4, 5, 6, 7, 8

VTS_01 :
Play Length: 01:42:26
Video: PAL 16:9 (720x576) VBR, Auto Pan&Scan
Audio:
Russian (Dolby AC3, 6 ch)

VTS_02 :
Play Length: 00:00:08
Video: PAL 4:3 (720x576) VBR

VTS_03 :
Play Length: 00:00:04
Video: PAL 16:9 (720x576) VBR, Auto Pan&Scan

VTS_04 :
Play Length: 00:00:12
Video: PAL 16:9 (720x576) VBR, Auto Pan&Scan
Subtitles:
English

Menu Video:
NTSC 4:3 (720x480) VBR
Auto Pan&Scan, Auto Letterboxed
Menu Russian Language Unit :
Root Menu
Chapter (PTT) Menu
Angle menu
Общее
Полное имя : F:\Новинки 2014\Teorija.zagovora.2014.DVD5\VIDEO_TS\VTS_01_2.VOB
Формат : MPEG-PS
Размер файла : 1024 Мбайт
Продолжительность : 24 м.
Режим общего битрейта : Переменный
Общий поток : 5883 Кбит/сек

Видео
Идентификатор : 224 (0xE0)
Формат : MPEG Video
Версия формата : Version 2
Профиль формата : Main@Main
Параметр BVOP формата : Да
Параметр матрицы формата : Выборочная
Параметр GOP формата : Variable
Format_Settings_PictureStructure : Frame
Продолжительность : 24 м.
Вид битрейта : Переменный
Битрейт : 5318 Кбит/сек
Максимальный битрейт : 8000 Кбит/сек
Ширина : 720 пикселей
Высота : 576 пикселей
Соотношение сторон : 16:9
Частота кадров : 25,000 кадров/сек
Стандарт вещания : PAL
Цветовое пространство : YUV
Субдискретизация насыщенности : 4:2:0
Битовая глубина : 8 бит
Тип развёртки : Чересстрочная
Порядок развёртки : Верхнее поле первое
Метод сжатия : С потерями
Бит/(Пиксели*Кадры) : 0.513
Временной код первого кадра : 00:25:50:06
Оригинал временного кода : Group of pictures header
Размер потока : 926 Мбайт (90%)
Gop_OpenClosed_FirstFrame : Closed

Аудио
Идентификатор : 189 (0xBD)-128 (0x80)
Формат : AC-3
Формат/Информация : Audio Coding 3
Расширение режима : CM (complete main)
Параметр Endianness формата : Big
Режим смешивания : DVD-Video
Продолжительность : 24 м.
Вид битрейта : Постоянный
Битрейт : 448 Кбит/сек
Каналы : 6 каналов
Расположение каналов : Front: L C R, Side: L R, LFE
Частота : 48,0 КГц
Битовая глубина : 16 бит
Метод сжатия : С потерями
Задержка видео : -448 мс.
Размер потока : 78,0 Мбайт (8%)










pb.wtf



Скачать Теория заговора через торрент http://i63.fastpic.ru/big/2014/1220/7e/4030a103b026b3600ee5291b24d9ca7e.png Скачать фильм Теория заговора через торрент бесплантно в хорошем качестве Описание: Южная Африка. Кейптаун. 2012 год. Отдел серийных убийств полиции Кейптауна начинает расследование зверского убийства белой ... 10 10 2
Торрент: Зарегистрирован [2014-12-20 10:56] · скачан: 80 раз
Статус: √ проверено
Размер: 3.98 GB
Как cкачать? Как скачать Теория заговора через торрент | UTorrent

% Раздел Тема Автор DL S | L
Фильмы [HD 720p, 1080p] (Хороший звук DUB, MVO) [ 6.12 GB ] Теория заговора / Zulu [2013 ЮАР BDRip 1080pMVO] [] Ворон Скачать
1 | 0
# Фильмы 2013 [DVDrip, WEB-DLRip, HDrip] [ 2.73 GB ] Теория заговора / Zulu [2013 BDRip-AVC] MVO+DVO+AVO + Subs Assasinca Скачать
1 | 0

28-11-2019 20:33  

Отключить всю рекламу на сайте

    Дорогой пользователь! Огромная просьба, поблагодарите релизера, оцените раздачу и оставьте свои комментарий, если Вы скачали Теория заговора через торрент бесплатно! Внесите свою лепту в развитие PiratBit!
    Комментировать посты могут только пользователи прошедшие не сложную регистрацию
    Показать сообщения:    

    Теория заговора через торрент
    Скачать бесплатно Теория заговора
    Теория заговора скачать торрент
    Теория заговора смотреть онлайн
    Cкачать фильм Теория заговора бесплатно
    Теория заговора скачать торрент в хорошем качестве
    Теория заговора смотреть онлайн бесплатно в хорошем качестве


    Вы не можете начинать темы
    Вы не можете отвечать на сообщения
    Вы не можете редактировать свои сообщения
    Вы не можете удалять свои сообщения
    Вы не можете голосовать в опросах
    Вы не можете прикреплять файлы к сообщениям
    Вы можете скачивать файлы