Ссылка на приватное зеркало нашего сайта всего за 1$. Внимание количество ограничено!!!

2 сезон

iTunes

1 сезон

1

iTunes

iTunes

iTunes

1 сезон

RePack

30

ИГРА 18+

pack

ВАЖНО

!!Акция!!

Alien_RageХит недели

RePack

MK11
pack

Забери бонус

RePack

jed

!!Акция!!

Alien_Rage

RePack

fifa19

RePack

Assassins Creed: Odyssey

RePack

NEED FOR SPEED™ PAYBACK

4 сезон

9 сезон

Бесстыжие 9 сезон

Все сериалы

все сериалы на PB.wtf

RePack

FAR CRY 5
  

Гость / The Guest (Адам Вингард ) [2014, боевик, триллер, детектив, BDRip 1080p, DVO] pb.wtf

Гость через торрент pb.wtf

Размер: 7.78 GB | Добавлен: 5 лет 10 мес. назад | Торрент скачан:150 раз
Скачать  

20-12-2014 12:34 Гость Скачать торрент  

Гость / The Guest

Год выпуска: 2014
Страна: США
Жанр: боевик, триллер, детектив
Продолжительность: 01:40:24
Перевод: Любительский (двухголосый)[datynet и Галина Васюкова]
Режиссер: Адам Вингард
В ролях: Дэн Стивенс («David»), Майка Монро (Anna Peterson), Брендан Мейер (Luke Peterson), Шейла Келли (Laura Peterson), Лиленд Орсер (Spencer Peterson), Лэнс Реддик (Major Carver), Табата Шон (Kristen), Чейз Уильямсон (Zeke), Джоэль Мур (Craig), Стивен Браун (Mike), Brenden Wedner (Ian), Алекс Найт (Mr. Lyles)
Описание:
В семью, потерявшую на войне своего сына и брата, приезжает незнакомец. Он представляется сослуживцем погибшего и напрашивается погостить у них несколько дней, чтобы познакомиться поближе, а заодно рассказать о своей службе. Незнакомец очень приветлив и добр к каждому из членов семьи и при каждом удобном случае старается чем-то помочь. Однако вскоре эта помощь становится все более и более радикальной...
Рейтинг:

MPAA: R - Лицам до 17 лет обязательно присутствие взрослого
Качество: BDRip 1080p
Формат: MKV
Видео кодек: AVC
Аудио кодек:DTS,AC3
Видео: MPEG-4 AVC, 1920x800, 23.976 fps, ~9395 Kbit/s
Аудио 1: АС3, 48000 Hz, 2 канала, 192 kbit/s [Русский]
Аудио 2: DTS, 48000 Hz, 6 каналов, 1509 kbit/s [Английский]


Код:

G:ЗагрузкиГость  The Guest (ЛД) (2014) BDRip [1080p]G0stj.2014.DVO.BDRip.1080p.mkv
   General
      Unique ID : 210026042207783377827104842440476942398 (0x9E018B5C6A924CA6BA5AD70906AF603E)
      Complete name : G:ЗагрузкиГость  The Guest (ЛД) (2014) BDRip [1080p]G0stj.2014.DVO.BDRip.1080p.mkv
      Format : Matroska
      Format version : Version 2
      File size : 7.78 GiB
      Duration : 1h 40mn
      Overall bit rate : 11.1 Mbps
      Encoded date : UTC 2014-12-20 05:25:58
      Writing application : mkvmerge v7.4.0 ('Circles') 64bit built on Dec 12 2014 12:19:56
      Writing library : libebml v1.3.0 + libmatroska v1.4.1
      DURATION : 01:40:25.024000000
      NUMBER_OF_FRAMES : 188282
      NUMBER_OF_BYTES : 144600576
      _STATISTICS_WRITING_APP : mkvmerge v7.4.0 ('Circles') 64bit built on Dec 12 2014 12:19:56
      _STATISTICS_WRITING_DATE_UTC : 2014-12-20 05:25:58
      _STATISTICS_TAGS : BPS DURATION NUMBER_OF_FRAMES NUMBER_OF_BYTES
   Video #1
      ID : 1
      Format : AVC
      Format/Info : Advanced Video Codec
      Format profile : High@L4.1
      Format settings, CABAC : Yes
      Format settings, ReFrames : 5 frames
      Codec ID : V_MPEG4/ISO/AVC
      Duration : 1h 40mn
      Bit rate : 9 395 Kbps
      Width : 1 920 pixels
      Height : 800 pixels
      Display aspect ratio : 2.40:1
      Frame rate mode : Constant
      Frame rate : 23.976 fps
      Color space : YUV
      Chroma subsampling : 4:2:0
      Bit depth : 8 bits
      Scan type : Progressive
      Bits/(Pixel*Frame) : 0.255
      Stream size : 6.43 GiB (83%)
      Writing library : x264 core 142 r2479 dd79a61
      Encoding settings : cabac=1 / ref=5 / deblock=1:0:0 / analyse=0x3:0x133 / me=umh / subme=7 / psy=1 / psy_rd=1.00:0.00 / mixed_ref=1 / me_range=16 / chroma_me=1 / trellis=1 / 8x8dct=1 / cqm=0 / deadzone=21,11 / fast_pskip=0 / chroma_qp_offset=-2 / threads=18 / lookahead_threads=3 / sliced_threads=0 / nr=0 / decimate=1 / interlaced=0 / bluray_compat=0 / constrained_intra=0 / bframes=3 / b_pyramid=2 / b_adapt=1 / b_bias=0 / direct=1 / weightb=1 / open_gop=0 / weightp=2 / keyint=250 / keyint_min=23 / scenecut=40 / intra_refresh=0 / rc_lookahead=40 / rc=2pass / mbtree=1 / bitrate=9395 / ratetol=1.0 / qcomp=0.60 / qpmin=0 / qpmax=69 / qpstep=4 / cplxblur=20.0 / qblur=0.5 / ip_ratio=1.40 / aq=1:1.00
      Language : English
      Default : Yes
      Forced : No
      DURATION : 01:40:24.987000000
      NUMBER_OF_FRAMES : 144455
      NUMBER_OF_BYTES : 7072978602
      _STATISTICS_WRITING_APP : mkvmerge v7.4.0 ('Circles') 64bit built on Dec 12 2014 12:19:56
      _STATISTICS_WRITING_DATE_UTC : 2014-12-20 05:25:58
      _STATISTICS_TAGS : BPS DURATION NUMBER_OF_FRAMES NUMBER_OF_BYTES
   Audio #2
      ID : 2
      Format : AC-3
      Format/Info : Audio Coding 3
      Mode extension : CM (complete main)
      Format settings, Endianness : Big
      Codec ID : A_AC3
      Duration : 1h 40mn
      Bit rate mode : Constant
      Bit rate : 192 Kbps
      Channel(s) : 2 channels
      Channel positions : Front: L R
      Sampling rate : 48.0 KHz
      Bit depth : 16 bits
      Compression mode : Lossy
      Stream size : 138 MiB (2%)
      Language : Russian
      Default : Yes
      Forced : No
   Audio #3
      ID : 3
      Format : DTS
      Format/Info : Digital Theater Systems
      Mode : 16
      Format settings, Endianness : Big
      Codec ID : A_DTS
      Duration : 1h 40mn
      Bit rate mode : Constant
      Bit rate : 1 509 Kbps
      Channel(s) : 6 channels
      Channel positions : Front: L C R, Side: L R, LFE
      Sampling rate : 48.0 KHz
      Bit depth : 24 bits
      Compression mode : Lossy
      Stream size : 1.06 GiB (14%)
      Language : English
      Default : No
      Forced : No

pb.wtf



Скачать Гость через торрент http://i63.fastpic.ru/big/2014/1220/70/449073eb80cf4092fc9322ddd6744e70.jpg Скачать фильм Гость через торрент бесплантно в хорошем качестве Описание: В семью, потерявшую на войне своего сына и брата, приезжает незнакомец. Он представляется сослуживцем погибшего и напрашивается ... 9.5 10 6
Торрент: Зарегистрирован [2014-12-20 12:34] · скачан: 150 раз
Статус: T временная
Размер: 7.78 GB
Как cкачать? Как скачать Гость через торрент | qTorrent

% Раздел Тема Автор DL S | L
Фильмы [HD 720p, 1080p] (Хороший звук DUB, MVO) [ 7.01 GB ] Гость на свадьбе / The Wedding Guest [2018 BDRip 1080p] MVO bober100 Скачать
1 | 0
Фильмы (Blu-ray, BD-Remux, HDDVD) [ 18.6 GB ] Гость на свадьбе / The Wedding Guest [2018 BD Remux 1080p] MVO bober100 Скачать
1 | 0
Фильмы 2018 [DVDrip, WEB-DLRip, HDrip] (DUB, MVO) [ 2.12 GB ] Гость на свадьбе / The Wedding Guest [2018 BDRip-AVC] MVO - ExKinoRay Enigma2010 Скачать
1 | 0
Фильмы (WEB-DL 720p, 1080p) [ 6.36 GB ] Гость на свадьбе / The Wedding Guest [2018 WEB-DL 1080p] MVO bober100 Скачать
1 | 0
Фильмы 2018 [DVDrip, WEB-DLRip, HDrip] (DUB, MVO) [ 1.46 GB ] Гость на свадьбе / The Wedding Guest [2018 WEB-DLRip] MVO bober100 Скачать
1 | 0
Фильмы 2014 [DVDrip, WEB-DLRip, HDrip] [ 2.11 GB ] Гость / The Guest [2014 BDRip-AVC ] GEKADOL Скачать
1 | 0
Фильмы 2014 [DVDrip, WEB-DLRip, HDrip] [ 1.37 GB ] Гость / The Guest [2014 HDRip - / ] _KaisiK_ Скачать
1 | 0

28-11-2019 20:33  

Отключить всю рекламу на сайте

    Дорогой пользователь! Огромная просьба, поблагодарите релизера, оцените раздачу и оставьте свои комментарий, если Вы скачали Гость через торрент бесплатно! Внесите свою лепту в развитие PiratBit!
    Комментировать посты могут только пользователи прошедшие не сложную регистрацию
    Показать сообщения:    

    Гость через торрент
    Скачать бесплатно Гость
    Гость скачать торрент
    Гость смотреть онлайн
    Cкачать фильм Гость бесплатно
    Гость скачать торрент в хорошем качестве
    Гость смотреть онлайн бесплатно в хорошем качестве


    Вы не можете начинать темы
    Вы не можете отвечать на сообщения
    Вы не можете редактировать свои сообщения
    Вы не можете удалять свои сообщения
    Вы не можете голосовать в опросах
    Вы не можете прикреплять файлы к сообщениям
    Вы можете скачивать файлы