Ссылка на приватное зеркало нашего сайта всего за 1$. Внимание количество ограничено!!!

2 сезон

iTunes

1 сезон

1

iTunes

iTunes

iTunes

1 сезон

RePack

30

ИГРА 18+

pack

ВАЖНО

!!Акция!!

Alien_RageХит недели

RePack

MK11
pack

Забери бонус

RePack

jed

!!Акция!!

Alien_Rage

RePack

fifa19

RePack

Assassins Creed: Odyssey

RePack

NEED FOR SPEED™ PAYBACK

4 сезон

9 сезон

Бесстыжие 9 сезон

Все сериалы

все сериалы на PB.wtf

RePack

FAR CRY 5
  

Прежде чем я усну / Before I Go to Sleep BDRip (Роуэн Жоффе / Rowan Joffé) [2014, Триллер, детектив, драма, BDRip 720p] DUB Лицензия pb.wtf

Прежде чем я усну через торрент pb.wtf

Размер: 3.37 GB | Добавлен: 5 лет 10 мес. назад | Торрент скачан:388 раз
Скачать  

20-12-2014 15:26 Прежде чем я усну Скачать торрент  

Прежде чем я усну / Before I Go to Sleep
Год выпуска: 2014
Страна: Великобритания, Франция, Швеция / Studio Canal, Millennium Films...
Жанр: Триллер, детектив, драма
Продолжительность: 01:28:17
Перевод: Дубляж [BD RUS]
Субтитры: Нет

Режиссер: Роуэн Жоффе / Rowan Joffé

В ролях: Николь Кидман, Колин Фёрт, Марк Стронг, Бен Кромптон, Энн-Мэри Дафф, Адам Леви, Гэбриел Стронг, Флинн МакАртур, Дин-Чарльз Чепмен, Ханна Блэмайерс

Описание: История о женщине, потерявшей память: каждое утро последние двадцать лет просто исчезают из ее воспоминаний, и каждое утро ей приходится по крупицам восстанавливать собственную жизнь. По совету врача, она записывает всё, что с ней происходит, на диктофон. И однажды Кристина с ужасом осознает, что в её жизни творится такое, о чём лучше забыть навсегда…



Качество: BDRip 720p
Формат: MKV
Видео кодек: H.264
Аудио кодек: AC3
Видео: 1280x536 (2,40:1), 25,000 fps, 4825 Кbps, 0.281 bit/pixel
Аудио: 48 kHz, AC3 Dolby Digital, 3/2 (L,C,R,l,r) + LFE ch, 640.00 kbps

Релиз группы:
Автор рипа: potroks

Общее
Уникальный идентификатор : 219207708896517535101198721227718422300 (0xA4E9DE7ABE97261F88B499FDCB506F1C)
Полное имя : Prezhde.Chem.Ya.Usnu.2014.RUS.BDRip.720p.-HELLYWOOD.mkv
Формат : Matroska
Версия формата : Version 4 / Version 2
Размер файла : 3,37 Гбайт
Продолжительность : 1 ч. 28 м.
Общий поток : 5461 Кбит/сек
Название фильма : Before I Go to Sleep BDRip (2014) - HELLYWOOD
Дата кодирования : UTC 2014-12-20 09:45:04
Программа кодирования : mkvmerge v5.9.0 ('On The Loose') built on Dec 15 2012 16:39:58
Библиотека кодирования : libebml v1.3.0 + libmatroska v1.4.0

Видео
Идентификатор : 1
Формат : AVC
Формат/Информация : Advanced Video Codec
Профиль формата : High@L4.1
Параметр CABAC формата : Да
Параметр ReFrames формата : 9 кадров
Идентификатор кодека : V_MPEG4/ISO/AVC
Продолжительность : 1 ч. 28 м.
Битрейт : 4825 Кбит/сек
Ширина : 1280 пикселей
Высота : 536 пикселей
Соотношение сторон : 2,40:1
Режим частоты кадров : Постоянный
Частота кадров : 25,000 кадров/сек
Цветовое пространство : YUV
Субдискретизация насыщенности : 4:2:0
Битовая глубина : 8 бит
Тип развёртки : Прогрессивная
Бит/(Пиксели*Кадры) : 0.281
Размер потока : 2,91 Гбайт (86%)
Заголовок : potroks
Библиотека кодирования : x264 core 130 r2273 b3065e6
Настройки программы : cabac=1 / ref=9 / deblock=1:-3:-3 / analyse=0x3:0x133 / me=umh / subme=11 / psy=1 / psy_rd=0.99:0.00 / mixed_ref=1 / me_range=48 / chroma_me=1 / trellis=2 / 8x8dct=1 / cqm=0 / deadzone=21,11 / fast_pskip=0 / chroma_qp_offset=-2 / threads=9 / lookahead_threads=6 / sliced_threads=0 / nr=0 / decimate=0 / interlaced=0 / bluray_compat=0 / constrained_intra=0 / bframes=10 / b_pyramid=2 / b_adapt=2 / b_bias=0 / direct=3 / weightb=1 / open_gop=0 / weightp=2 / keyint=250 / keyint_min=23 / scenecut=40 / intra_refresh=0 / rc_lookahead=60 / rc=2pass / mbtree=0 / bitrate=4825 / ratetol=1.0 / qcomp=0.70 / qpmin=0 / qpmax=69 / qpstep=4 / cplxblur=20.0 / qblur=0.5 / vbv_maxrate=50000 / vbv_bufsize=62500 / nal_hrd=none / ip_ratio=1.35 / pb_ratio=1.25 / aq=1:0.80
Язык : English
Default : Да
Forced : Нет

Аудио
Идентификатор : 2
Формат : AC-3
Формат/Информация : Audio Coding 3
Расширение режима : CM (complete main)
Параметр Endianness формата : Big
Идентификатор кодека : A_AC3
Продолжительность : 1 ч. 28 м.
Вид битрейта : Постоянный
Битрейт : 640 Кбит/сек
Каналы : 6 каналов
Расположение каналов : Front: L C R, Side: L R, LFE
Частота : 48,0 КГц
Битовая глубина : 16 бит
Метод сжатия : С потерями
Размер потока : 404 Мбайт (12%)
Заголовок : Dub | DD 5.1 @ 640 kbps - Blu-Ray RUS
Язык : Russian
Default : Да
Forced : Нет

Меню
00:00:00.000 : en:Chapter 01
00:08:17.880 : en:Chapter 02
00:13:38.960 : en:Chapter 03
00:21:28.400 : en:Chapter 04
00:26:07.200 : en:Chapter 05
00:32:57.280 : en:Chapter 06
00:37:16.880 : en:Chapter 07
00:45:38.560 : en:Chapter 08
00:52:28.360 : en:Chapter 09
01:01:47.600 : en:Chapter 10
01:05:44.240 : en:Chapter 11
01:15:51.120 : en:Chapter 12

pb.wtf



Скачать Прежде чем я усну через торрент http://pic.kartinco.top/images/8/wpfzh.jpg Скачать фильм Прежде чем я усну через торрент бесплантно в хорошем качестве Описание: История о женщине, потерявшей память: каждое утро последние двадцать лет просто исчезают из ее воспоминаний, и каждое утро ей ... 9.8 10 6
Торрент: Зарегистрирован [2014-12-20 15:26] · скачан: 388 раз
Статус: √ проверено
Размер: 3.37 GB
Как cкачать? Как скачать Прежде чем я усну через торрент | qTorrent

% Раздел Тема Автор DL S | L
Фильмы [HD 720p, 1080p] (Хороший звук DUB, MVO) [ 9.25 GB ] Прежде чем я усну / Before I Go to Sleep [2014 BDRip 1080p Dub ] Seedtank Скачать
1 | 0

28-11-2019 20:33  

Отключить всю рекламу на сайте

    Дорогой пользователь! Огромная просьба, поблагодарите релизера, оцените раздачу и оставьте свои комментарий, если Вы скачали Прежде чем я усну через торрент бесплатно! Внесите свою лепту в развитие PiratBit!
    Комментировать посты могут только пользователи прошедшие не сложную регистрацию
    Показать сообщения:    

    Прежде чем я усну через торрент
    Скачать бесплатно Прежде чем я усну
    Прежде чем я усну скачать торрент
    Прежде чем я усну смотреть онлайн
    Cкачать фильм Прежде чем я усну бесплатно
    Прежде чем я усну скачать торрент в хорошем качестве
    Прежде чем я усну смотреть онлайн бесплатно в хорошем качестве


    Вы не можете начинать темы
    Вы не можете отвечать на сообщения
    Вы не можете редактировать свои сообщения
    Вы не можете удалять свои сообщения
    Вы не можете голосовать в опросах
    Вы не можете прикреплять файлы к сообщениям
    Вы можете скачивать файлы