2 сезон

iTunes

MVO

1

2 сезон

iTunes

iTunes

1 сезон

RePack

30

Новинка

ВАЖНО

ИГРА 18+

pack

RePack

MK11
pack

Легкие деньги

RePack

jed

RePack

fifa19

RePack

RDR2

RePack

NEED FOR SPEED™ PAYBACK

4 сезон

9 сезон

Бесстыжие 9 сезон

Все сериалы

все сериалы на PB.wtf

RePack

FAR CRY 5

Anonymous, добрый день, мы не успеваем собрать деньги на оплату серверов за декабрь и январь, помогите нам пожалуйста в это трудное время. В качестве благодарности мы отключим Вам всю рекламу на сайте (укажите свой ник в строку Ваше имя)!

×
  
Magnet ссылка

BBC: Чудеса Солнечной системы / Wonders of the Solar System [5 серии из 5](Michael Lachmann, Paul Olding) [2010 г., документальный, BDRip 720p, VO] pb.wtf

BBC: Чудеса Солнечной системы через торрент pb.wtf

Размер: 19.86 GB | Добавлен: 6 лет назад | Торрент скачан:57 раз
Скачать  

21-12-2014 04:51 BBC: Чудеса Солнечной системы Скачать торрент  

Чудеса Солнечной системы / Wonders of the Solar System

Год выпуска: 2010
Страна: Великобритания / British Broadcasting Corporation
Жанр: Документальный
Продолжительность: 5 х ~ 00:58:26
Перевод: Профессиональный (одноголосый)
Русские субтитры: есть

Режиссер: Михаэль Лачман / Michael Lachmann, Пол Олдинг / Paul Olding
В ролях: Брайан Кокс / Brian Cox

Описание: На протяжении тысячелетий люди зачарованно смотрели на звездное небо. Мы предлагаем Вам отправиться в захватывающее путешествие в глубины этого непознанного пространства, чтобы своими глазами увидеть истинную и удивительную красоту нашей Cолнечной системы.

Качество: BDRip 720p [Исходник Blu-ray Disc]
Формат: MKV
Видео кодек: H.264
Аудио кодек: DTS
Видео: 1280x720, 6825 Кбит/с, 25.000 кадр/с
Аудио#1: Russian: (DTS, 1510 Кбит/с, 48 kHz, 6 ch)
Аудио#2: English: (DTS, 1510 Кбит/с, 48 kHz, 6 ch)
Общее
Формат : Matroska
Версия формата : Version 2
Размер файла : 4,10 Гбайт
Продолжительность : 58 м.
Общий поток : 10,0 Мбит/сек
Название фильма : Wonders.of.the.Solar.System.(1serii.is.5).2010.BDRip.720p.by.IRONCLUB
Дата кодирования : UTC 2012-03-02 16:39:06
Программа кодирования : mkvmerge v5.3.0 ('I could have danced') built on Feb 9 2012 10:38:07
Библиотека кодирования : libebml v1.2.3 + libmatroska v1.3.0

Видео
Идентификатор : 1
Формат : AVC
Формат/Информация : Advanced Video Codec
Профиль формата : High@L4.1
Параметр CABAC формата : Да
Параметр ReFrames формата : 9 кадров
Идентификатор кодека : V_MPEG4/ISO/AVC
Продолжительность : 58 м.
Битрейт : 6825 Кбит/сек
Ширина : 1280 пикселей
Высота : 720 пикселей
Соотношение сторон : 16:9
Частота кадров : 25,000 кадров/сек
Цветовое пространство : YUV
Субдискретизация насыщенности : 4:2:0
Битовая глубина : 8 бит
Тип развёртки : Прогрессивная
Бит/(Пиксели*Кадры) : 0.296
Размер потока : 2,79 Гбайт (68%)
Заголовок : Wonders of the Solar System (2010) - Release for IronClub.TV
Библиотека кодирования : x264 core 120 r2164 da19765
Настройки программы : cabac=1 / ref=9 / deblock=1:-3:-3 / analyse=0x3:0x113 / me=umh / subme=11 / psy=1 / psy_rd=1.05:0.05 / mixed_ref=1 / me_range=32 / chroma_me=1 / trellis=2 / 8x8dct=1 / cqm=0 / deadzone=21,11 / fast_pskip=0 / chroma_qp_offset=-2 / threads=12 / sliced_threads=0 / nr=0 / decimate=1 / interlaced=0 / bluray_compat=0 / constrained_intra=0 / bframes=8 / b_pyramid=2 / b_adapt=2 / b_bias=0 / direct=3 / weightb=1 / open_gop=0 / weightp=2 / keyint=250 / keyint_min=23 / scenecut=40 / intra_refresh=0 / rc_lookahead=40 / rc=crf / mbtree=1 / crf=17.0 / qcomp=0.60 / qpmin=10 / qpmax=69 / qpstep=4 / vbv_maxrate=50000 / vbv_bufsize=62500 / crf_max=0.0 / nal_hrd=none / ip_ratio=1.40 / aq=1:1.00
Язык : English
Default : Да
Forced : Да

Аудио #1
Идентификатор : 2
Формат : DTS
Формат/Информация : Digital Theater Systems
Идентификатор кодека : A_DTS
Продолжительность : 58 м.
Вид битрейта : Постоянный
Битрейт : 1510 Кбит/сек
Каналы : 6 каналов
Расположение каналов : Front: L C R, Side: L R, LFE
Частота : 48,0 КГц
Битовая глубина : 16 бит
Метод сжатия : С потерями
Размер потока : 631 Мбайт (15%)
Заголовок : DTS 5.1 @ 1536 kbps - Закадровый одноголосый
Язык : Russian
Default : Да
Forced : Да

Аудио #2
Идентификатор : 3
Формат : DTS
Формат/Информация : Digital Theater Systems
Идентификатор кодека : A_DTS
Продолжительность : 58 м.
Вид битрейта : Постоянный
Битрейт : 1510 Кбит/сек
Каналы : 6 каналов
Расположение каналов : Front: L C R, Side: L R, LFE
Частота : 48,0 КГц
Битовая глубина : 16 бит
Метод сжатия : С потерями
Размер потока : 631 Мбайт (15%)
Заголовок : DTS 5.1 @ 1536 kbps
Язык : English
Default : Нет
Forced : Нет

Текст
Идентификатор : 4
Формат : UTF-8
Идентификатор кодека : S_TEXT/UTF8
Идентификатор кодека/Информация : UTF-8 Plain Text
Язык : Russian
Default : Нет
Forced : Нет


1. Серия. Империя Солнца / Empire of the Sun: Изучая самое сердце нашей системы - Солнце, мы станем свидетелеми полного солнечного затмения в Индии и полярного сияния в Норвежской Арктике, узнаем, как звезды живут и умирают, и поразимся красоте и масштабу империи Солнца.

2. Серия. Порядок из хаоса / Order Out of Chaos: В этой серии мы узнаем, как из облаков газа родилось все космическое великолепие, из хаоса - порядок. Окольцованный Сатурн - из всех планет самый упорядоченный. Изучая его кольца и причудливые луны, мы пытаемся понять, как законы физики, создавшие этот образцовый порядок, создают хаос метеоритного дождя и астероидов, превращающих наше космическое пространство в стрельбище.

3. Серия. Тонкая Синяя Линия / The Thin Blue Line: Атмосфера — это удивительное чудо Солнечной системы, делающее возможным существование жизни. Немногим избранным повезло видеть тонкую голубую линию нашей атмосферы. В этой серии мы узнаем историю Меркурия, потерявшего свою атмосферу. И увидим за плотной темной атмосферой Титана, спутника Сатурна, поразительные озера.

4. Серия. Мертвый или Живой / Dead or Alive: Даже огромный вулкан Мауна-Кеа покажется незначительным и целиком скроется в тени высочайшей горы Солнечной системы — потухшего вулкана Олимп на Марсе, высота которого двадцать семь километров. Но чудеса случаются не только на поверхности планет...

5. Серия. Чужие / Aliens: В глубинах Тихого океана существуют необычные формы жизни. Их существование рождает удивительную версию, что на одном из спутников Юпитера, Европе, сверкающем ледяном шаре, где-то под слоем льда есть океан, в котором тоже есть жизнь. Но самое большое чудо нашей Солнечной системы — это мы, люди.
скриншот  скриншот  скриншот  скриншот  скриншот  скриншот  скриншот  
pb.wtf



Скачать BBC: Чудеса Солнечной системы через торрент http://pic.kartinco.top/images/8/botwx.jpg Скачать фильм BBC: Чудеса Солнечной системы через торрент бесплантно в хорошем качестве Описание: На протяжении тысячелетий люди зачарованно смотрели на звездное небо. Мы предлагаем Вам отправиться в захватывающее путешествие в ... 9.7 10 6
Info! Золотая раздача, скачанное не засчитывается.
Торрент: Зарегистрирован [2014-12-21 04:51] · скачан: 57 раз
Статус: √ проверено
Размер: 19.86 GB
Как cкачать? Как скачать BBC: Чудеса Солнечной системы через торрент | UTorrent

% Раздел Тема Автор DL S | L
BBC [ 5 GB ] BBC: Чудеса Солнечной системы / Wonders of the Solar System [2010 документальный HDRip одноголосый] кэп Скачать
1 | 0

28-11-2019 20:33  

Отключить всю рекламу на сайте

21-12-2014 17:44 BBC: Чудеса Солнечной системы Скачать торрент  

Дайте скорости. А то почти не качает =( А хочется посмотреть. Как скачаю, буду хорошо раздавать. До 20 МБ =)pb.wtf



21-12-2014 18:33 BBC: Чудеса Солнечной системы Скачать торрент  

dmc-dante писал(а):

Дайте скорости. А то почти не качает =( А хочется посмотреть. Как скачаю, буду хорошо раздавать. До 20 МБ =)

я раздаю на максимуме ~600 kb/spb.wtf



21-12-2014 18:55 BBC: Чудеса Солнечной системы Скачать торрент  

Осталось 0,3% =) Большое спасибо за резил. Познавательно =)pb.wtf



04-02-2015 03:56 BBC: Чудеса Солнечной системы Скачать торрент  

AARRSSEENN, дай скорости. уже месяц качаю.pb.wtf



    Дорогой пользователь! Огромная просьба, поблагодарите релизера, оцените раздачу и оставьте свои комментарий, если Вы скачали BBC: Чудеса Солнечной системы через торрент бесплатно! Внесите свою лепту в развитие PiratBit!
    Комментировать посты могут только пользователи прошедшие не сложную регистрацию
    Показать сообщения:    

    BBC: Чудеса Солнечной системы через торрент
    Скачать бесплатно BBC: Чудеса Солнечной системы
    BBC: Чудеса Солнечной системы скачать торрент
    BBC: Чудеса Солнечной системы смотреть онлайн
    Cкачать фильм BBC: Чудеса Солнечной системы бесплатно
    BBC: Чудеса Солнечной системы скачать торрент в хорошем качестве
    BBC: Чудеса Солнечной системы смотреть онлайн бесплатно в хорошем качестве


    Вы не можете начинать темы
    Вы не можете отвечать на сообщения
    Вы не можете редактировать свои сообщения
    Вы не можете удалять свои сообщения
    Вы не можете голосовать в опросах
    Вы не можете прикреплять файлы к сообщениям
    Вы можете скачивать файлы