2 сезон

iTunes

1 сезон

1

iTunes

iTunes

iTunes

1 сезон

RePack

30

ИГРА 18+

pack

ВАЖНО

!!Акция!!

Alien_RageХит недели

RePack

MK11
pack

Забери бонус

RePack

jed

!!Акция!!

Alien_Rage

RePack

fifa19

RePack

Assassins Creed: Odyssey

RePack

NEED FOR SPEED™ PAYBACK

4 сезон

9 сезон

Бесстыжие 9 сезон

Все сериалы

все сериалы на PB.wtf

RePack

FAR CRY 5
  

Люблю твою жену / The Right Kind of Wrong (Джеримайя С. Чечик / Jeremiah S. Chechik) [2013, Канада, мелодрама, комедия, BDRip 720p, Дубляж / лицензия pb.wtf

Люблю твою жену через торрент pb.wtf

Размер: 3.59 GB | Добавлен: 5 лет 10 мес. назад | Торрент скачан:67 раз
Скачать  

21-12-2014 06:16 Люблю твою жену Скачать торрент  

«Он встретил любовь всей своей жизни... на её свадьбе»Люблю твою жену / The Right Kind of Wrong

Страна: Канада / Nomadic Pictures, Serendipity Point Films

Жанр: мелодрама, комедия

Год выпуска: 2013

Продолжительность: 01:37:10

Перевод: Профессиональный (дублированный)

Cубтитры: английские

Оригинальная аудиодорожка: английский

Режиссер: Джеримайя С. Чечик / Jeremiah S. Chechik

В ролях: Райан Квантен, Сара Каннинг, Райан МакПартлин, Кристен Хагер, Джеймс А. Вудс, Рауль Банеджа, Дженнифер Бэкстер, Уилл Сассо, Кэтрин О’Хара, Мария Менунос...

Описание: Это история о писателе Лео, который вынужден мыть посуду, чтобы свести концы с концами. Помимо этого его бывшая жена выставляет все его многочисленные недостатки на суд общественности в своем супер-знаменитом блоге «Почему ты мудак». Но вот Лео встречает Коллет — девушку своей мечты. Теперь он сделает все, чтобы завоевать ее и заставит весь мир понять, как все заблуждались на его счет.



Качество: BDRip 720p / DVD5 R5 от "CD Land" - Лицензионный диск + The.Right.Kind.Of.Wrong.2013.720p.BDrip.mkv

Формат: MKV

Видео кодек: AVC

Аудио кодек: AC3

Видео: 1280x528 (2.40:1), MPEG-4 AVC 4201 Кбит/сек / 23.976 fps / Бит/(Пиксели*Кадры) : 0.259

Аудио 1: Dolby Digital Audio Russian 448 kbps / 5.1 / 48 kHz

Аудио 2: Dolby Digital Audio English 640 kbps / 5.1 / 48 kHz

Формат субтитров: SoftSub (srt)

Дополнительно: Фильм разбит на главы, как на оригинальном Blu-ray диске

Раздача от:
General

Format : Matroska

Format version : Version 4 / Version 2

File size : 3.59 GiB

Duration : 1h 37mn

Overall bit rate mode : Variable

Overall bit rate : 5 292 Kbps

Encoded date : UTC 2014-12-20 13:14:15

Writing application : mkvmerge v7.4.0 ('Circles') 64bit built on Dec 12 2014 12:19:56

Writing library : libebml v1.3.0 + libmatroska v1.4.1

DURATION : 01:37:10.176000000

NUMBER_OF_FRAMES : 182193

NUMBER_OF_BYTES : 326489856

_STATISTICS_WRITING_APP : mkvmerge v7.4.0 ('Circles') 64bit built on Dec 12 2014 12:19:56

_STATISTICS_WRITING_DATE_UTC : 2014-12-20 13:14:15

_STATISTICS_TAGS : BPS DURATION NUMBER_OF_FRAMES NUMBER_OF_BYTES

Video

ID : 1

Format : AVC

Format/Info : Advanced Video Codec

Format profile : High@L4.1

Format settings, CABAC : Yes

Format settings, ReFrames : 3 frames

Codec ID : V_MPEG4/ISO/AVC

Duration : 1h 37mn

Bit rate mode : Variable

Bit rate : 4 201 Kbps

Maximum bit rate : 40.0 Mbps

Width : 1 280 pixels

Height : 528 pixels

Display aspect ratio : 2.40:1

Frame rate mode : Constant

Frame rate : 23.976 fps

Color space : YUV

Chroma subsampling : 4:2:0

Bit depth : 8 bits

Scan type : Progressive

Bits/(Pixel*Frame) : 0.259

Stream size : 2.78 GiB (77%)

Writing library : x264 core 142 r2431 ac76440

Encoding settings : cabac=1 / ref=4 / deblock=1:2:2 / analyse=0x3:0x113 / me=hex / subme=7 / psy=1 / psy_rd=1.00:0.00 / mixed_ref=1 / me_range=16 / chroma_me=1 / trellis=1 / 8x8dct=1 / cqm=0 / deadzone=21,11 / fast_pskip=1 / chroma_qp_offset=-2 / threads=10 / lookahead_threads=1 / sliced_threads=0 / slices=4 / nr=0 / decimate=1 / interlaced=0 / bluray_compat=0 / constrained_intra=0 / bframes=3 / b_pyramid=1 / b_adapt=1 / b_bias=0 / direct=1 / weightb=1 / open_gop=0 / weightp=0 / keyint=23 / keyint_min=1 / scenecut=40 / intra_refresh=0 / rc_lookahead=23 / rc=2pass / mbtree=1 / bitrate=4201 / ratetol=1.0 / qcomp=0.60 / qpmin=10 / qpmax=51 / qpstep=4 / cplxblur=20.0 / qblur=0.5 / vbv_maxrate=40000 / vbv_bufsize=30000 / nal_hrd=vbr / filler=0 / ip_ratio=1.40 / aq=1:1.00

Language : Kannada

Default : Yes

Forced : No

Color primaries : BT.709

Transfer characteristics : BT.709

Matrix coefficients : BT.709

Audio #1

ID : 2

Format : AC-3

Format/Info : Audio Coding 3

Mode extension : CM (complete main)

Format settings, Endianness : Big

Codec ID : A_AC3

Duration : 1h 37mn

Bit rate mode : Constant

Bit rate : 448 Kbps

Channel(s) : 6 channels

Channel positions : Front: L C R, Side: L R, LFE

Sampling rate : 48.0 KHz

Bit depth : 16 bits

Compression mode : Lossy

Stream size : 311 MiB (8%)

Language : Russian

Default : Yes

Forced : No

Audio #2

ID : 3

Format : AC-3

Format/Info : Audio Coding 3

Mode extension : CM (complete main)

Format settings, Endianness : Big

Codec ID : A_AC3

Duration : 1h 37mn

Bit rate mode : Constant

Bit rate : 640 Kbps

Channel(s) : 6 channels

Channel positions : Front: L C R, Side: L R, LFE

Sampling rate : 48.0 KHz

Bit depth : 16 bits

Compression mode : Lossy

Stream size : 445 MiB (12%)

Language : English

Default : No

Forced : No

Text

ID : 4

Format : UTF-8

Codec ID : S_TEXT/UTF8

Codec ID/Info : UTF-8 Plain Text

Default : No

Forced : No

Menu

00:00:00.000 : en:00:00:00.000

00:08:31.094 : en:00:08:31.094

00:16:44.754 : en:00:16:44.754

00:25:14.722 : en:00:25:14.722

00:33:58.954 : en:00:33:58.954

00:41:14.806 : en:00:41:14.806

00:50:32.112 : en:00:50:32.112

00:58:49.860 : en:00:58:49.860

01:06:16.556 : en:01:06:16.556

01:14:33.844 : en:01:14:33.844

01:23:25.542 : en:01:23:25.542

01:32:40.930 : en:01:32:40.930
pb.wtf



Скачать Люблю твою жену через торрент http://s020.radikal.ru/i707/1412/98/084c1413b83c.jpg Скачать фильм Люблю твою жену через торрент бесплантно в хорошем качестве Описание: Это история о писателе Лео, который вынужден мыть посуду, чтобы свести концы с концами. Помимо этого его бывшая жена выставляет ... 10 10 4
Торрент: Зарегистрирован [2014-12-21 06:16] · скачан: 67 раз
Статус: √ проверено
Размер: 3.59 GB
Как cкачать? Как скачать Люблю твою жену через торрент | qTorrent

% Раздел Тема Автор DL S | L
Фильмы [HD 720p, 1080p] (Хороший звук DUB, MVO) [ 6.86 GB ] Люблю твою жену / The Right Kind of Wrong [2013 BDRip 1080p / лицензия Ворон Скачать
1 | 0

28-11-2019 20:33  

Отключить всю рекламу на сайте

    Дорогой пользователь! Огромная просьба, поблагодарите релизера, оцените раздачу и оставьте свои комментарий, если Вы скачали Люблю твою жену через торрент бесплатно! Внесите свою лепту в развитие PiratBit!
    Комментировать посты могут только пользователи прошедшие не сложную регистрацию
    Показать сообщения:    

    Люблю твою жену через торрент
    Скачать бесплатно Люблю твою жену
    Люблю твою жену скачать торрент
    Люблю твою жену смотреть онлайн
    Cкачать фильм Люблю твою жену бесплатно
    Люблю твою жену скачать торрент в хорошем качестве
    Люблю твою жену смотреть онлайн бесплатно в хорошем качестве


    Вы не можете начинать темы
    Вы не можете отвечать на сообщения
    Вы не можете редактировать свои сообщения
    Вы не можете удалять свои сообщения
    Вы не можете голосовать в опросах
    Вы не можете прикреплять файлы к сообщениям
    Вы можете скачивать файлы