Присоединяйтесь к нам в Telegram!, здесь всегда актуальный адрес сайта, оперативная поддержка и многое другое!!

>

5.9

iTunes

7.4

iTunes

9.4

1 сезон

1

7.4

2 сезон

7.2

iTunes

7.3

1 сезон

13

6.1

iTunes

8.3

GOG

30

ULTIMATE

pack

9.9

Лицензия

ВАЖНО

ИГРА 18+

pack

7.3

RePack

MK11

7.7

RePack

jed

7.8

RePack

fifa19

8.5

RePack

RDR2

RePack

NEED FOR SPEED™ PAYBACK

5 сезон

9 сезон

Бесстыжие 9 сезон

Все сериалы

все сериалы на PB.wtf

RePack

FAR CRY 5

Anonymous, доброе утро, мы катастрофически не успеваем собрать деньги на оплату серверов, помогите нам пожалуйста 5,10,15р., для нас важна любая помощь . В качестве благодарности мы отключим Вам всю рекламу на сайте (укажите свой ник в строку Ваше имя)!

×
  
Magnet ссылка

МегаМикс / Mega Year Videomix 2014 (non-stop) [2014 г., Mixes, Disco, Rap, Pop, WEB-DLRip 720p, Оригинал] pb.wtf

МегаМикс через торрент pb.wtf

Качают: 1 [ 0 KB/s ]
Размер: 6.59 GB | Добавлен: 6 лет 11 мес. назад | Торрент скачан:91 раз
Смотреть онлайн МегаМикс | Скачать    Ребята, помогите собрать деньги на оплату серверов!!!

21-12-2014 07:07 МегаМикс Скачать торрент  

МегаМикс / Mega Year Videomix 2014 (non-stop)
Год выпуска: 2014
Страна: All World
Жанр: Mixes, Disco, Rap, Pop
Продолжительность: 03:25:28
Перевод: Оригинал

Описание:

Мегамикс уходящего года нон-стоп (качество так себе, но для для чего то сойдёт) ... на любителя и для фона..
01.SEXY DANCE CLIPS OF 2000s - VIDEO MIX (1)

1.Intro
2.TOM JONES - SEX BOMB (PEPPERMINT DISCO MIX VDJ MARTINI REMIX VIDEO)
3.Michael Gray Feat.Shelly Poole-Borderline
4.Supafly - 'Moving Too Fast'
5.Sunblock Feat. Sandy - Baby Baby
6.United.Nations-You And Me
7.David Guetta - The World is Mine - Music Video
8.Eric Prydz-Call on me -Late night version
9.Junior Jack-Stupidisco
10.Cabin Crew - 'Star To Fall'
11.Michael.Gray-The.Weekend
12.Studio B- I See Girls
13.Camille Jones vs Fedde le Grand-The.Creeps
14.Fedde le Grand-Put.Your Hands up for Detroit
15.Benny Benassi - Who's your daddy
16.Mason Feat. Princess Superstar - Perfect
17.Alex Gaudino feat. Crystal Waters- Destination Calabria
18.Alex Gaudino & Shena - Watch Out
19.Hi Tack-Say Say Say Waiting 4 U
20.Tim Deluxe feat Sam Obernik - It Just Won t Do
21.Narcotic Thrust - I Like It
22.Girls Of FHM - Do You Think Im Sexy
23.Don Diablo Presents Divided - Easy Lover
24.Boogie Pimps - 'Somebody To Love'
25.DJ Smash & Alex Gaudino Ft. Dhany - Moscow never sleeps
26.Geo Da Silva - I'll Do You Like A Truck
27.Sasha Dith-Russian Girls
28.Benny Benassi - Satisfaction
29.Masterblaster-Hypnotic Tango
30.Blank Jones-Perfect Silence
31.Ashley Jade-Let Me Be Your Fantasy
32.Dj Jean-Feel It
33.Paffendorf - Crazy Sexy Marvelous
34.Jules and Raoul - Progress
35.Add n to (x) - Plug Me In

02. Mega Year Videomix 2014 party in DA Club (part 1 hip-hop)

1.MUYB Intro Trailer
2.Man Of The Year (Extended Mix) ScHoolboy Q feat. Dj OJ
3.Schoolboy Q ft BJ The Chicago Kid - Studio
4.Katy Perry - Dark Horse (ft Juicy J)
5.Ne-Yo ft. Juicy J. - She Knows
6.Low War Party Starter - Juicy J (Explicit) ft. Nicki Minaj, Lil Bibby, Young Thug
7.Ashanti - I Got It (ft Rick Ross)
8.Joe Budden ft Fabolous, Lil' Wayne & Tank - She Don't Put It Down
9.Mary J Blige - Suitcase
10.David Banner ft Chris Brown & Young Joc - Get Like Me
11.Game ft Problem And Bad Lucc - THOT.
12.Tyga ft Young Thug - Hookah
13.Ma$e ft Eric Bellinger - Nothin'
14.Trey Songz - Na Na
15.Kid Ink Usher & Tinashe - Body Language
16.Big Sean feat. E-40 - IDFWU (DJ Twist One Extended)
17.CHRIS BROWN FT. TYGA - LOYAL !
18.E-40 - Chitty Bang
19.T.I. Ft. Iggy Azalea - No Mediocre
20.Fergie ft. YG - L.A.LOVE (la la)
21.New Thang (Extended Big Bass) - Redfoo ft. Dj OJ
22.Ariana Grande Ft. Iggy Azalea - Problem
23.T.I. ft Lil' Wayne - Ball
24.Sky Blu - Go On Girl
25.Ice Cube - Drop Girl
26.Jason Derulo ft Snoop Dogg - Wiggle - Clean
27.Nicki Minaj - Anaconda

03. Super Videomix Club Party Fall 2014 (part 2)

1.Aretha Franklin - Respect
2.ABBA - Dancing Queen
3.The Human League - Don't You Want Me
4.Barry Harris presents Kon Kan - I Beg Your Pardon 2014
5.Survivor - Eye of the Tiger
6.C&C Music Factory vs DNK - Everybody Dance Now Logo
7.Sir Mix-A-Lot - Baby Got Back
8.LADY MARMALADE (REMIX) - CHRISTINA A , LIL KIM MIA & PINK
9.Alex Gaudino feat Cystal Waters - Destination Calabria
10.David Guetta Feat Kelly Rowland - When Love Takes Over
11.Alexis Jordan - Happiness
12.Calvin Harris Ft. Ayah Marar - Thinking About You (DJ Rob-Lego)
13.David Guetta ft Sam Martin - Lovers On The Sun
14.Avicii - Addicted to You
15.LIGHTS UP AND EVERYBODY DANCE NOW!!! Katy Perry - This Is How We Do!
16.Sia - Chandelier .
17.Taylor Swift - Shake It Off
18.Ariana Grande Ft Iggy Azalea - Problem
19.Jennifer Lopez ft. Iggy Azalea - Booty
20.Nicki Minaj - Anaconda
21.Jessie J, Ariana G, Nicki M - Bang Bang
22.Major Lazer Feat. Sean Paul - Come On To Me
23.Redfoo - New Thang - Miguel Vargas Saxpeal Mix & VDJ.Juan Reyes VJ
24.DJ Snake ft. Lil Jon-Turn Down For What
25.Jason Derulo Wiggle (Fantom Remix)
26.T.I. ft Iggy Azalea - No Mediocre
27.Iggy Azalea ft Rita Ora - Black Widow (Viсе remix)
28.Sky Blu - Go On Girl
29.Ice Cube - Drop Girl
30.Low War Party Starter - Juicy J
31.T-Pain - Booty Wurk
32.LUDACRIS - STAND UP INSTR.5:COME ON! ROCK YOUR BODY AND RAISE YOUR HANDS!!! JOAN JET -I LOVE ROCK AND TWERK
33.DJ Snake ft Lil Jon - Turn Down For What
34.Sean Paul - Get Busy
35.Public Enemy - Bring the Noise
36.Deep Purple - Smoke on the Jump Smokers
37.OFFSPRING - SELF ESTEEM REMIX
38.RAMMSTEIN - Du hast Stampede
39.Brooklyn Bounce -'Club Bizarre' RMX
Качество: WEB-DLRip 720p
Формат: MKV
Видео кодек: H.264
Аудио кодек: MP3
Видео: AVC, 1280x720 (16:9), 29.970 fps, 4 444 Kbps (0.161 bit/pixel)
Аудио#1: MP3, 44.1 KHz, 2 ch, 128 Kbps, CBR (English)
Релиз от: terras
скриншот   скриншот   скриншот   скриншот   скриншот   скриншот  

Общее
Уникальный идентификатор : 242765200065680680046671663405675110059 (0xB6A2E077ADF80F2AFB4CD3DD0CDCDEAB)
Полное имя : D:\Архив\Клипы\Mega Year Videomix 2014 (non-stop)\01. Sexy Dance Clips Of 2000s - VIDEO MIX (1).mkv
Формат : Matroska
Версия формата : Version 4 / Version 2
Размер файла : 1,69 Гбайт
Продолжительность : 52 м.
Общий поток : 4576 Кбит/сек
Программа кодирования : Lavf55.19.104
Библиотека кодирования : Lavf55.19.104

Видео
Идентификатор : 1
Формат : AVC
Формат/Информация : Advanced Video Codec
Профиль формата : Main@L3.1
Параметр CABAC формата : Да
Параметр ReFrames формата : 4 кадра
Идентификатор кодека : V_MPEG4/ISO/AVC
Продолжительность : 52 м.
Битрейт : 4444 Кбит/сек
Ширина : 1280 пикселей
Высота : 720 пикселей
Соотношение сторон : 16:9
Режим частоты кадров : Постоянный
Частота кадров : 29,970 кадров/сек
Цветовое пространство : YUV
Субдискретизация насыщенности : 4:2:0
Битовая глубина : 8 бит
Тип развёртки : Прогрессивная
Бит/(Пиксели*Кадры) : 0.161
Размер потока : 1,61 Гбайт (95%)
Библиотека кодирования : x264 core 119
Настройки программы : cabac=1 / ref=1 / deblock=1:0:0 / analyse=0x1:0x1 / me=dia / subme=1 / psy=1 / psy_rd=1.00:0.00 / mixed_ref=0 / me_range=16 / chroma_me=1 / trellis=0 / 8x8dct=0 / cqm=0 / deadzone=21,11 / fast_pskip=1 / chroma_qp_offset=0 / threads=6 / sliced_threads=0 / nr=0 / decimate=1 / interlaced=0 / bluray_compat=0 / constrained_intra=0 / bframes=3 / b_pyramid=2 / b_adapt=1 / b_bias=0 / direct=1 / weightb=1 / open_gop=0 / weightp=1 / keyint=250 / keyint_min=25 / scenecut=40 / intra_refresh=0 / rc=abr / mbtree=0 / bitrate=4444 / ratetol=1.0 / qcomp=0.60 / qpmin=0 / qpmax=69 / qpstep=4 / ip_ratio=1.40 / pb_ratio=1.30 / aq=1:1.00
Default : Да
Forced : Нет
Дата кодирования : UTC 2014-11-29 14:00:08
HANDLER_NAME : L-SMASH Video Handler

Аудио
Идентификатор : 2
Формат : MPEG Audio
Версия формата : Version 1
Профиль формата : Layer 3
Режим : Joint stereo
Идентификатор кодека : A_MPEG/L3
Идентификатор кодека/Подсказка : MP3
Продолжительность : 52 м.
Вид битрейта : Постоянный
Битрейт : 128 Кбит/сек
Каналы : 2 канала
Частота : 44,1 КГц
Метод сжатия : С потерями
Задержка видео : 1 м. 5 с.
Размер потока : 48,4 Мбайт (3%)
Библиотека кодирования : LAME3.99.5
Default : Да
Forced : Нет
Дата кодирования : UTC 2014-11-29 14:00:08
HANDLER_NAME : L-SMASH Audio Handler

Общее
Уникальный идентификатор : 303251184223934908981126242049321444494 (0xE4240DBB23C985372270DFDF2939A48E)
Полное имя : D:\Архив\Клипы\Mega Year Videomix 2014 (non-stop)\02. Mega Year Videomix 2014 party in DA Club (part 1 hip-hop).mkv
Формат : Matroska
Версия формата : Version 4 / Version 2
Размер файла : 1,78 Гбайт
Продолжительность : 55 м.
Общий поток : 4582 Кбит/сек
Программа кодирования : Lavf55.19.104
Библиотека кодирования : Lavf55.19.104

Видео
Идентификатор : 1
Формат : AVC
Формат/Информация : Advanced Video Codec
Профиль формата : Main@L3.1
Параметр CABAC формата : Да
Параметр ReFrames формата : 4 кадра
Идентификатор кодека : V_MPEG4/ISO/AVC
Продолжительность : 55 м.
Битрейт : 4444 Кбит/сек
Ширина : 1280 пикселей
Высота : 720 пикселей
Соотношение сторон : 16:9
Режим частоты кадров : Постоянный
Частота кадров : 29,970 кадров/сек
Цветовое пространство : YUV
Субдискретизация насыщенности : 4:2:0
Битовая глубина : 8 бит
Тип развёртки : Прогрессивная
Бит/(Пиксели*Кадры) : 0.161
Размер потока : 1,69 Гбайт (95%)
Библиотека кодирования : x264 core 119
Настройки программы : cabac=1 / ref=1 / deblock=1:0:0 / analyse=0x1:0x1 / me=dia / subme=1 / psy=1 / psy_rd=1.00:0.00 / mixed_ref=0 / me_range=16 / chroma_me=1 / trellis=0 / 8x8dct=0 / cqm=0 / deadzone=21,11 / fast_pskip=1 / chroma_qp_offset=0 / threads=6 / sliced_threads=0 / nr=0 / decimate=1 / interlaced=0 / bluray_compat=0 / constrained_intra=0 / bframes=3 / b_pyramid=2 / b_adapt=1 / b_bias=0 / direct=1 / weightb=1 / open_gop=0 / weightp=1 / keyint=250 / keyint_min=25 / scenecut=40 / intra_refresh=0 / rc=abr / mbtree=0 / bitrate=4444 / ratetol=1.0 / qcomp=0.60 / qpmin=0 / qpmax=69 / qpstep=4 / ip_ratio=1.40 / pb_ratio=1.30 / aq=1:1.00
Default : Да
Forced : Нет
Дата кодирования : UTC 2014-12-17 01:18:10
HANDLER_NAME : L-SMASH Video Handler

Аудио
Идентификатор : 2
Формат : MPEG Audio
Версия формата : Version 1
Профиль формата : Layer 3
Режим : Joint stereo
Расширение режима : MS Stereo
Идентификатор кодека : A_MPEG/L3
Идентификатор кодека/Подсказка : MP3
Продолжительность : 55 м.
Вид битрейта : Постоянный
Битрейт : 128 Кбит/сек
Каналы : 2 канала
Частота : 44,1 КГц
Метод сжатия : С потерями
Задержка видео : 1 м. 5 с.
Размер потока : 50,9 Мбайт (3%)
Default : Да
Forced : Нет
Дата кодирования : UTC 2014-12-17 01:18:10
HANDLER_NAME : L-SMASH Audio Handler

Общее
Уникальный идентификатор : 230502569638494929829080225957311621781 (0xAD692E1BDA4927AB105989E256C72A95)
Полное имя : D:\Архив\Клипы\Mega Year Videomix 2014 (non-stop)\03. Super Videomix Club Party Fall 2014 (part 2).mkv
Формат : Matroska
Версия формата : Version 4 / Version 2
Размер файла : 3,12 Гбайт
Продолжительность : 1 ч. 37 м.
Общий поток : 4591 Кбит/сек
Программа кодирования : Lavf55.19.104
Библиотека кодирования : Lavf55.19.104

Видео
Идентификатор : 1
Формат : AVC
Формат/Информация : Advanced Video Codec
Профиль формата : Main@L3.1
Параметр CABAC формата : Да
Параметр ReFrames формата : 4 кадра
Идентификатор кодека : V_MPEG4/ISO/AVC
Продолжительность : 1 ч. 37 м.
Битрейт : 4444 Кбит/сек
Ширина : 1280 пикселей
Высота : 720 пикселей
Соотношение сторон : 16:9
Режим частоты кадров : Постоянный
Частота кадров : 29,970 кадров/сек
Цветовое пространство : YUV
Субдискретизация насыщенности : 4:2:0
Битовая глубина : 8 бит
Тип развёртки : Прогрессивная
Бит/(Пиксели*Кадры) : 0.161
Размер потока : 2,97 Гбайт (95%)
Библиотека кодирования : x264 core 119
Настройки программы : cabac=1 / ref=1 / deblock=1:0:0 / analyse=0x1:0x1 / me=dia / subme=1 / psy=1 / psy_rd=1.00:0.00 / mixed_ref=0 / me_range=16 / chroma_me=1 / trellis=0 / 8x8dct=0 / cqm=0 / deadzone=21,11 / fast_pskip=1 / chroma_qp_offset=0 / threads=6 / sliced_threads=0 / nr=0 / decimate=1 / interlaced=0 / bluray_compat=0 / constrained_intra=0 / bframes=3 / b_pyramid=2 / b_adapt=1 / b_bias=0 / direct=1 / weightb=1 / open_gop=0 / weightp=1 / keyint=250 / keyint_min=25 / scenecut=40 / intra_refresh=0 / rc=abr / mbtree=0 / bitrate=4444 / ratetol=1.0 / qcomp=0.60 / qpmin=0 / qpmax=69 / qpstep=4 / ip_ratio=1.40 / pb_ratio=1.30 / aq=1:1.00
Default : Да
Forced : Нет
Дата кодирования : UTC 2014-10-30 08:21:09
HANDLER_NAME : L-SMASH Video Handler

Аудио
Идентификатор : 2
Формат : MPEG Audio
Версия формата : Version 1
Профиль формата : Layer 3
Режим : Joint stereo
Идентификатор кодека : A_MPEG/L3
Идентификатор кодека/Подсказка : MP3
Продолжительность : 1 ч. 37 м.
Вид битрейта : Постоянный
Битрейт : 128 Кбит/сек
Каналы : 2 канала
Частота : 44,1 КГц
Метод сжатия : С потерями
Задержка видео : 1 м. 5 с.
Размер потока : 89,0 Мбайт (3%)
Библиотека кодирования : LAME3.99.5
Default : Да
Forced : Нет
Дата кодирования : UTC 2014-10-30 08:21:09
HANDLER_NAME : L-SMASH Audio Handler

pb.wtf



Скачать МегаМикс через торрент https://pic1.kartinco.top/images/81/a9i6p.jpg Скачать, смотреть онлайн МегаМикс бесплантно в хорошем качестве Описание:Мегамикс уходящего года нон-стоп (качество так себе, но для для чего то сойдёт) ... на любителя и для фона..SEXY DANCE CLIPS OF ... 9.1 10 10
Info! Золотая раздача, скачанное не засчитывается.
Торрент: Зарегистрирован [2014-12-21 07:07] · скачан: 91 раз
Статус: √ проверено
Размер: 6.59 GB
Как cкачать? Как скачать МегаМикс через торрент | UTorrent

% Раздел Тема Автор DL S | L
Клипы [ 2.03 GB ] МегаМикс / MegaYearVideomix2014XXL [2014 Mixes Disco Rap WEB-DLRip 720p Оригинал] siurpriz Скачать
1 | 0

28-11-2019 20:33  

Отключить всю рекламу на сайте

    Дорогой пользователь! Огромная просьба, поблагодарите релизера, оцените раздачу и оставьте свои комментарий, если Вы скачали МегаМикс через торрент бесплатно!
    Комментировать посты могут только пользователи прошедшие не сложную регистрацию
    Показать сообщения:    

    МегаМикс через торрент
    Скачать бесплатно МегаМикс
    МегаМикс скачать торрент
    МегаМикс смотреть онлайн
    Cкачать фильм МегаМикс бесплатно
    МегаМикс скачать торрент в хорошем качестве
    МегаМикс смотреть онлайн бесплатно в хорошем качестве


    Вы не можете начинать темы
    Вы не можете отвечать на сообщения
    Вы не можете редактировать свои сообщения
    Вы не можете удалять свои сообщения
    Вы не можете голосовать в опросах
    Вы не можете прикреплять файлы к сообщениям
    Вы можете скачивать файлы