Ссылка на приватное зеркало нашего сайта всего за 1$. Внимание количество ограничено!!!

2 сезон

iTunes

1 сезон

1

2 сезон

2 сезон

iTunes

1 сезон

RePack

30

Новинка

ВАЖНО

ИГРА 18+

pack

RePack

MK11
pack

Забери бонус

RePack

jed

!!Акция!!

Alien_Rage

RePack

fifa19

RePack

Assassins Creed: Odyssey

RePack

NEED FOR SPEED™ PAYBACK

4 сезон

9 сезон

Бесстыжие 9 сезон

Все сериалы

все сериалы на PB.wtf

RePack

FAR CRY 5
  

Камера пыток / Torture Chamber (Данте Томаселли / Dante Tomaselli) [2013, США, ужасы, BDRip 720p] VO pb.wtf

Камера пыток через торрент pb.wtf

Размер: 4.3 GB | Добавлен: 5 лет 11 мес. назад | Торрент скачан:43 раза
Скачать  

21-12-2014 12:39 Камера пыток Скачать торрент  


Название: Камера пыток

Оригинальное название: Torture Chamber

Год выхода: 2013

Страна: США

Продолжительность: 01:32:52

Перевод: Авторский (Ворон)

Озвучено: Любительский одноголосый (Хихикающий доктор)

Жанр: Ужасы

Режиссер: Данте Томаселли

В ролях: Винсент Пасторе, Кристи Санфорд, Линн Лаури, Рон Миллки, Ло Порто Кармен, Элли Петтит, Рэйн Браун, Дэнни Лопес

Описание:

Мальчик, в теле которого поселилось зло, подвергался множеству сеансов изгнания демона, но ни одно из них ему не помогло. Сбежав из заточения он окончательно поддался темным силам и возвращается уже с армией сожженных на огне детей, чтобы с их помощью мстить, отлавливая и убивая всех подряд в ужасной камере пыток, устроенной в замке специально для этих целей.



Качество: BDRip 720p
Формат: MKV
Видео кодек: AVC
Аудио кодек: AC3
Видео: MPEG-4 AVC, 5355 Кбит/с, 1280х536, 23.976 кадр/с
Звук1: Русский (AC3, 6 ch, 640 Кбит/с)/ 48 kHz
Звук2: английский (AC3, 6 ch, 640 Кбит/с)/ 48 kHz
Полное имя : E:Torture.Chamber.2013.x264.BDRip.720p.NovaLan.mkv

Формат : Matroska

Версия формата : Version 4 / Version 2

Размер файла : 4,30 Гбайт

Продолжительность : 1 ч. 32 м.

Общий поток : 6627 Кбит/сек

Название фильма : Torture Chamber 2013 - NovaLan

Дата кодирования : UTC 2014-12-20 14:17:46

Программа кодирования : mkvmerge v7.4.0 ('Circles') 64bit built on Dec 12 2014 12:19:56

Библиотека кодирования : libebml v1.3.0 + libmatroska v1.4.1

DURATION : 01:32:52.608000000

NUMBER_OF_FRAMES : 174144

NUMBER_OF_BYTES : 445808640

_STATISTICS_WRITING_APP : mkvmerge v7.4.0 ('Circles') 64bit built on Dec 12 2014 12:19:56

_STATISTICS_WRITING_DATE_UTC : 2014-12-20 14:17:46

_STATISTICS_TAGS : BPS DURATION NUMBER_OF_FRAMES NUMBER_OF_BYTES

Видео

Идентификатор : 1

Формат : AVC

Формат/Информация : Advanced Video Codec

Профиль формата : High@L4.1

Параметр CABAC формата : Да

Параметр ReFrames формата : 8 кадров

Идентификатор кодека : V_MPEG4/ISO/AVC

Продолжительность : 1 ч. 32 м.

Битрейт : 5355 Кбит/сек

Ширина : 1280 пикселей

Высота : 536 пикселей

Соотношение сторон : 2,40:1

Частота кадров : 23,976 кадра/сек

Цветовое пространство : YUV

Субдискретизация насыщенности : 4:2:0

Битовая глубина : 8 бит

Тип развёртки : Прогрессивная

Бит/(Пиксели*Кадры) : 0.326

Размер потока : 3,38 Гбайт (79%)

Заголовок : Sergei7721

Библиотека кодирования : x264 core 133 r2334 a3ac64b

Настройки программы : cabac=1 / ref=8 / deblock=1:-1:-1 / analyse=0x3:0x113 / me=umh / subme=11 / psy=1 / psy_rd=1.00:0.20 / mixed_ref=1 / me_range=32 / chroma_me=1 / trellis=2 / 8x8dct=1 / cqm=0 / deadzone=21,11 / fast_pskip=0 / chroma_qp_offset=-3 / threads=12 / lookahead_threads=1 / sliced_threads=0 / nr=0 / decimate=0 / interlaced=0 / bluray_compat=0 / constrained_intra=0 / bframes=6 / b_pyramid=2 / b_adapt=2 / b_bias=0 / direct=3 / weightb=1 / open_gop=0 / weightp=2 / keyint=240 / keyint_min=23 / scenecut=40 / intra_refresh=0 / rc_lookahead=40 / rc=2pass / mbtree=0 / bitrate=5355 / ratetol=1.0 / qcomp=0.60 / qpmin=0 / qpmax=69 / qpstep=4 / cplxblur=20.0 / qblur=0.5 / vbv_maxrate=50000 / vbv_bufsize=62500 / nal_hrd=none / ip_ratio=1.40 / pb_ratio=1.30 / aq=1:1.00

Default : Да

Forced : Нет

DURATION : 01:32:52.567000000

NUMBER_OF_FRAMES : 133608

NUMBER_OF_BYTES : 3722993572

_STATISTICS_WRITING_APP : mkvmerge v7.4.0 ('Circles') 64bit built on Dec 12 2014 12:19:56

_STATISTICS_WRITING_DATE_UTC : 2014-12-20 14:17:46

_STATISTICS_TAGS : BPS DURATION NUMBER_OF_FRAMES NUMBER_OF_BYTES

Аудио #1

Идентификатор : 2

Формат : AC-3

Формат/Информация : Audio Coding 3

Расширение режима : CM (complete main)

Параметр Endianness формата : Big

Идентификатор кодека : A_AC3

Продолжительность : 1 ч. 32 м.

Вид битрейта : Постоянный

Битрейт : 640 Кбит/сек

Каналы : 6 каналов

Расположение каналов : Front: L C R, Side: L R, LFE

Частота : 48,0 КГц

Битовая глубина : 16 бит

Метод сжатия : С потерями

Размер потока : 425 Мбайт (10%)

Язык : Russian

Default : Да

Forced : Нет

Аудио #2

Идентификатор : 3

Формат : AC-3

Формат/Информация : Audio Coding 3

Расширение режима : CM (complete main)

Параметр Endianness формата : Big

Идентификатор кодека : A_AC3

Продолжительность : 1 ч. 32 м.

Вид битрейта : Постоянный

Битрейт : 640 Кбит/сек

Каналы : 6 каналов

Расположение каналов : Front: L C R, Side: L R, LFE

Частота : 48,0 КГц

Битовая глубина : 16 бит

Метод сжатия : С потерями

Размер потока : 425 Мбайт (10%)

Язык : English

Default : Нет

Forced : Нет

Меню

00:00:00.000 : en:00:00:00.000

00:06:59.961 : en:00:06:59.961

00:13:59.964 : en:00:13:59.964

00:20:59.967 : en:00:20:59.967

00:27:59.928 : en:00:27:59.928

00:34:59.931 : en:00:34:59.931

00:41:59.934 : en:00:41:59.934

00:48:59.895 : en:00:48:59.895

00:55:59.898 : en:00:55:59.898

01:02:59.942 : en:01:02:59.942

01:09:59.945 : en:01:09:59.945

01:19:59.920 : en:01:19:59.920

01:32:52.567 : en:01:32:52.567
Релиз группы NovaLan

Автор релиза Sergei7721




pb.wtf



Скачать Камера пыток через торрент http://i63.fastpic.ru/big/2014/1221/ca/e4fbca173bbd5fc2f6e1dfa3edc3feca.jpg Скачать фильм Камера пыток через торрент бесплантно в хорошем качестве Описание: Мальчик, в теле которого поселилось зло, подвергался множеству сеансов изгнания демона, но ни одно из них ему не помогло. Сбежав ... 9.9 10 7
Торрент: Зарегистрирован [2014-12-21 12:39] · скачан: 43 раз
Статус: √ проверено
Размер: 4.3 GB
Как cкачать? Как скачать Камера пыток через торрент | qTorrent

% Раздел Тема Автор DL S | L
Азиатские фильмы [ 1.43 GB ] Китайская камера пыток 2 / A Chinese Torture Chamber Story 2 / Man qing shi da ku xing zhi [1998 эротика DVDRip] [VO] killermax2013 Скачать
1 | 0
Азиатские фильмы [ 744 MB ] Китайская камера пыток / A Chinese Torture Chamber Story / Mun ching sap daai huk ying [1994 DVDRip] [Васька Куролесов] killermax2013 Скачать
1 | 0
Фильмы [HD 720p, 1080p] (Звук Cam, VO, DVO) [ 7.86 GB ] Камера пыток / Torture Chamber [2013 BDRip 1080p] VO Ворон Скачать
1 | 0

28-11-2019 20:33  

Отключить всю рекламу на сайте

    Дорогой пользователь! Огромная просьба, поблагодарите релизера, оцените раздачу и оставьте свои комментарий, если Вы скачали Камера пыток через торрент бесплатно! Внесите свою лепту в развитие PiratBit!
    Комментировать посты могут только пользователи прошедшие не сложную регистрацию
    Показать сообщения:    

    Камера пыток через торрент
    Скачать бесплатно Камера пыток
    Камера пыток скачать торрент
    Камера пыток смотреть онлайн
    Cкачать фильм Камера пыток бесплатно
    Камера пыток скачать торрент в хорошем качестве
    Камера пыток смотреть онлайн бесплатно в хорошем качестве


    Вы не можете начинать темы
    Вы не можете отвечать на сообщения
    Вы не можете редактировать свои сообщения
    Вы не можете удалять свои сообщения
    Вы не можете голосовать в опросах
    Вы не можете прикреплять файлы к сообщениям
    Вы можете скачивать файлы